<?xml version="1.0" standalone="no"?>
<!DOCTYPE svg PUBLIC "-//W3C//DTD SVG 1.1//EN" "http://www.w3.org/Graphics/SVG/1.1/DTD/svg11.dtd" >
<svg xmlns="http://www.w3.org/2000/svg">
<metadata>
Created by FontForge 20120731 at Thu Aug  4 15:05:34 2016
 By admin
</metadata>
<defs>
<font id="iconfont" horiz-adv-x="1024" >
  <font-face 
    font-family="iconfont"
    font-weight="500"
    font-stretch="normal"
    units-per-em="1024"
    panose-1="2 0 6 3 0 0 0 0 0 0"
    ascent="896"
    descent="-128"
    x-height="792"
    bbox="-0.555556 -221 1353 896.219"
    underline-thickness="50"
    underline-position="-100"
    unicode-range="U+0078-E6B4"
  />
<missing-glyph horiz-adv-x="374" 
d="M34 0v682h272v-682h-272zM68 34h204v614h-204v-614z" />
    <glyph glyph-name=".notdef" horiz-adv-x="374" 
d="M34 0v682h272v-682h-272zM68 34h204v614h-204v-614z" />
    <glyph glyph-name=".null" horiz-adv-x="0" 
 />
    <glyph glyph-name="nonmarkingreturn" horiz-adv-x="341" 
 />
    <glyph glyph-name="x" unicode="x" horiz-adv-x="1001" 
d="M281 543q-27 -1 -53 -1h-83q-18 0 -36.5 -6t-32.5 -18.5t-23 -32t-9 -45.5v-76h912v41q0 16 -0.5 30t-0.5 18q0 13 -5 29t-17 29.5t-31.5 22.5t-49.5 9h-133v-97h-438v97zM955 310v-52q0 -23 0.5 -52t0.5 -58t-10.5 -47.5t-26 -30t-33 -16t-31.5 -4.5q-14 -1 -29.5 -0.5
t-29.5 0.5h-32l-45 128h-439l-44 -128h-29h-34q-20 0 -45 1q-25 0 -41 9.5t-25.5 23t-13.5 29.5t-4 30v167h911zM163 247q-12 0 -21 -8.5t-9 -21.5t9 -21.5t21 -8.5q13 0 22 8.5t9 21.5t-9 21.5t-22 8.5zM316 123q-8 -26 -14 -48q-5 -19 -10.5 -37t-7.5 -25t-3 -15t1 -14.5
t9.5 -10.5t21.5 -4h37h67h81h80h64h36q23 0 34 12t2 38q-5 13 -9.5 30.5t-9.5 34.5q-5 19 -11 39h-368zM336 498v228q0 11 2.5 23t10 21.5t20.5 15.5t34 6h188q31 0 51.5 -14.5t20.5 -52.5v-227h-327z" />
    <glyph glyph-name="uniE600" unicode="&#xe600;" 
d="M396 656h232v0q24 0 43 -13.5t27 -35.5l1 -1v-1l42 -97l7 -15h16h124q42 0 71 -29.5t29 -70.5v-460q0 -42 -29 -71t-71 -29h-752q-42 0 -71 29t-29 71v460q0 41 29 70.5t71 29.5h124h16l7 15l43 99v1q8 21 27 34q19 14 43 14zM512 -6q78 0 133.5 55.5t55.5 134t-55.5 134
t-133.5 55.5t-133.5 -55.5t-55.5 -134t55.5 -134t133.5 -55.5zM628 682h-232q-32 0 -57.5 -18t-36.5 -47l-42 -99h-124q-52 0 -89 -36.5t-37 -88.5v-460q0 -52 37 -89t89 -37h752q52 0 89 37t37 89v460q0 52 -37 88.5t-89 36.5h-124l-41 98q-11 29 -37 47.5t-58 18.5z
M512 20q-68 0 -116 48t-48 116t48 116t116 48t116 -48t48 -116t-48 -116t-116 -48z" />
    <glyph glyph-name="uniE601" unicode="&#xe601;" 
d="M590 -58q2 0 -3 12.5t-18.5 37t-30.5 50.5q-16 -13 -54.5 -36.5t-52.5 -32.5q-12 14 -32.5 38t-81.5 83.5t-120 101.5q-38 27 -66 60t-42.5 64.5t-21 64t-5 59.5t9.5 50q18 59 69.5 103t113.5 44q47 0 98 -25.5t76 -47.5l7 -5l6 5q87 84 198 80q46 -1 81.5 -16
t56.5 -38.5t32.5 -46t15.5 -45.5q8 -25 3.5 -70.5t-22.5 -83.5q34 0 65 -13.5t56.5 -48t29.5 -84.5q4 -39 -16 -73.5t-52 -57.5t-76.5 -44t-83.5 -34t-80 -27.5t-60 -23.5zM781 491q-17 62 -58.5 88t-120.5 24q-26 -1 -53 -12t-46.5 -26.5t-35.5 -30.5t-24 -26l-9 -10
l-10 10q-7 7 -27.5 24t-40 30t-45 23.5t-45.5 10.5q-52 0 -93 -33t-56 -81q-17 -52 12 -125.5t105 -128.5q48 -35 99.5 -82.5t78.5 -76t27 -29.5q9 6 34.5 21t35.5 22q-26 39 -44 83t-25.5 89.5t7 86.5t51.5 65q44 22 83 22t63 -14.5t42 -33.5t25.5 -33t7.5 -16q14 6 35 10
q20 37 27.5 81t-0.5 68z" />
    <glyph glyph-name="uniE602" unicode="&#xe602;" 
d="M585 300q0 -18 -12.5 -30t-30 -12t-30 12t-12.5 30t12.5 30t30 12t30 -12t12.5 -30zM542.5 402q42.5 0 72 29.5t29.5 72t-29.5 72t-72 29.5t-72 -29.5t-29.5 -72t29.5 -72t72 -29.5zM542.5 578q30.5 0 52.5 -22t22 -52.5t-22 -52t-52.5 -21.5t-52 21.5t-21.5 52
t21.5 52.5t52 22zM542.5 198q-42.5 0 -72 -29.5t-29.5 -72t29.5 -72t72 -29.5t72 29.5t29.5 72t-29.5 72t-72 29.5zM542.5 22q-30.5 0 -52 22t-21.5 52.5t21.5 52t52 21.5t52.5 -21.5t22 -52t-22 -52.5t-52.5 -22zM746 402q-42 0 -72 -30t-30 -72t30 -72t72 -30t72 30t30 72
t-30 72t-72 30zM746.5 226q-30.5 0 -52.5 21.5t-22 52.5t22 52.5t52.5 21.5t52 -21.5t21.5 -52.5t-21.5 -52.5t-52 -21.5zM339 402q-42 0 -72 -30t-30 -72t30 -72t72 -30t72 30t30 72t-30 72t-72 30zM339 226q-31 0 -52.5 21.5t-21.5 52.5t21.5 52.5t52.5 21.5t52.5 -21.5
t21.5 -52.5t-21.5 -52.5t-52.5 -21.5zM542.5 716q-113.5 0 -209 -55.5t-151.5 -151.5t-56 -209q0 -70 23 -136q10 -29 24 -56q3 -5 6 -11q9 -18 9 -37q0 -36 -25.5 -61.5t-61.5 -25.5q-12 0 -24 3q-4 -14 -12 -25q18 -6 36 -6q46 0 79 31.5t35 76.5v7q0 27 -12 51q0 1 -3 6
q-46 86 -46 183q0 105 52 195t141.5 142t195 52t195 -52t141.5 -142t52 -195t-52 -195t-141.5 -142t-194.5 -52q-121 0 -221 69q-2 -16 -6 -29q103 -67 227 -67q113 0 209 55.5t151.5 151.5t55.5 209t-55.5 209t-151.5 151.5t-209.5 55.5z" />
    <glyph glyph-name="uniE603" unicode="&#xe603;" 
d="M643 219q-31 118 -73 168q-6 7 -12 13q-27 23 -32 33q-5 11 -6.5 41.5t1.5 42.5q-1 0 -5 1q1 19 -17 56q-24 48 -21 56q0 -1 1 -2h1q1 -2 2 -3q2 -1 3 -2q2 -1 3 -1v-1q4 -1 7 -2h1h2h2h2q1 0 2 1h2v1h1l1 1v1q1 0 1 1l1 1v1q3 -6 13.5 -1t10.5 14q0 4 -2 8q4 2 4 8v2
q0 1 -1 2q0 2 -1 4.5t-2 4.5q0 1 -1 2l-4 4q-4 5 -8 5q6 3 7 21q1 17 -6 25q-1 6 -6 12q-4 4 -13 9q-1 0 -2.5 1t-2.5 1q-17 6 -35 4q-11 -1 -14 -6v-1l-1 -1q-16 -10 -19 -18q-1 -2 -1.5 -5t-1 -5t-3.5 -4q-5 -4 -14 -6q-3 -1 -1 -3l4 -6l-6 -4q1 -6 5 -9q-3 0 -5 -1
q0 -5 -1 -7q-1 -1 -3 -4q-2 -1 -1 -5q0 -8 16.5 -10t19.5 -5q3 -2 7 -21t5 -28l-1 -18q-4 -10 -6 -14q-3 -14 -16 -29q-18 -20 -18 -28q-1 -9 7 -22t17 -16q-5 -45 -6 -49q-2 -7 -39 -103q-5 2 -11 4q-2 0 -3 1l14 13l-16 22q-3 5 -5 8t-22 49q1 17 6 54t5 58
q0 10 -2.5 25.5t-6.5 38t-6 36.5q-1 7 -5 15q-3 7 -9 15q-2 4 -4 7l13 13q1 1 6 -1t11 -4t8 -3q7 0 10 10q1 4 2 5h2q2 1 3 2l-2 5q9 1 8 3q0 1 -0.5 2.5t0.5 2.5l7 1q1 0 2 0.5t1 1.5q-1 3 -2 8.5t-2 8.5t0 4l3 4q1 1 1.5 7.5t1.5 11.5l1 1q3 -1 5 1.5t3 9.5q1 8 -4.5 17.5
t-12.5 14.5q-29 20 -60 8l-10 -6l-3 -1v-1q-8 -2 -14 -11q-3 -5 -4 -10q-3 -14 -5 -39q-1 -3 -7 -15q-1 -4 -1 -3l2 -2l-4 -5v0q-6 5 -6.5 5t-1 -2.5t-1.5 -6t-2 -5.5v-1q-2 -4 -15.5 -18.5t-22.5 -21.5t-19 -54t-9 -69v-23v-7v-2v-2q-1 -78 -7 -155q0 -6 -1 -12
q-2 -29 -5 -45q5 -2 13 -6v0q1 -17 4 -48t5 -55t2 -28q0 -3 1 -22t1 -25q0 -4 -8.5 -43t-8.5 -50q-2 -34 0 -73q2 -44 6 -81q1 -14 -5 -35q-1 -1 -1 -3l-1 -2q0 -1 7 1l1 -8h36l8 9l10 -9h87q17 3 15 8q-1 2 -9.5 4t-18.5 3.5t-12 2.5q-5 2 -18 12h1l6 2q-1 1 -5.5 6
t-8.5 10t-8 13.5t-5 18.5q-1 11 4.5 63.5t11.5 100t6 46.5l22 177q7 2 8 4v10v2v14v0h1v0h1v0h1l1 1v-1q1 0 1 -1q4 -11 8 -14q-4 -7 -8 -17l-2 -5h4l6 11l-3 -15q-1 -2 0 -2q2 -2 4 3l9 16h15q-2 -2 -4.5 -3.5t-3.5 -2.5h-2h-5q-3 0 -2 -3q1 -2 4 -2.5t5 0.5l2 1
q0 -3 3 -3.5t5 -0.5q11 3 17 11l3 2h6q5 0 13 28q1 7 55 105l1 1q1 -4 2 -10q4 -17 10 -40q14 -61 8.5 -272.5t-18.5 -276.5v-3q-2 -8 -4 -10v0q17 -15 103 -19.5t182 6t136 31.5q-32 3 -73 52t-75.5 115t-61 128t-36.5 98zM568 625q3 -8 5.5 -36.5t9.5 -33.5q3 -2 5.5 -2
t5.5 3.5t5 6.5t5.5 7.5t4.5 6.5q10 13 13 -3q3 -14 8 -19t13.5 -0.5t15 9.5t18.5 16.5t19 17t17.5 12t18.5 6t15 -8.5q3 -3 9.5 -11t11.5 -12.5t10 -7.5q18 -10 37 -2t27 32l3 3q-10 -28 -30 -38.5t-40 -1.5q-6 3 -11 8t-11.5 13t-9.5 11q-6 7 -14 7.5t-18.5 -6t-17 -12
t-18.5 -16.5q-13 -12 -19.5 -17t-15 -9.5t-13.5 1t-8 18.5q-3 15 -11 5q-2 -2 -5.5 -7t-5.5 -8t-5.5 -7t-6 -3.5t-5.5 1.5q-7 6 -9.5 34.5t-5.5 35.5q-7 19 -19 26t-21 -2q7 12 22.5 5.5t20.5 -22.5zM594 598q5 -31 16 -55.5t23 -18.5q6 3 11 11t11.5 23.5t8.5 19.5
q11 23 29 48.5t21 10.5q2 -7 -4 -37q-4 -23 -3 -27q2 -6 13 12q1 2 2 3q16 25 28.5 36.5t25.5 5.5l-3 -7q-13 6 -25 -4.5t-26 -33.5q-16 -26 -18 -18q-1 4 3 28q5 29 4 35q-3 14 -18.5 -9t-26.5 -45q-2 -4 -7.5 -16.5t-9 -19t-9 -13.5t-10.5 -10q-12 -6 -23 18.5t-17 55.5
q-5 33 -16 49t-23.5 15t-25.5 -13q13 21 27 23t25 -15.5t17 -51.5zM623 473q5 2 8 -1q4 -5 -1.5 -9.5t-23.5 -3.5q2 18 7.5 22.5t9.5 -0.5q2 -3 0 -8zM671 410q5 5 9 3q7 -2 4 -10t-22 -18q-8 21 -5 28.5t10 4.5q4 -1 4 -8z" />
    <glyph glyph-name="uniE604" unicode="&#xe604;" 
d="M640 -148h289l-1 33q0 2 -1 9t-5.5 23t-12.5 31.5t-25.5 33.5t-40 31t-59.5 22t-82 9h-62h-192h-342q36 64 152 64h612l-6 38q-7 42 -16 86.5t-25 113t-36 126.5t-44.5 112.5t-55.5 87t-65 35.5q-50 3 -93 -53.5t-82 -179.5l-30 -85q-74 167 -158 167h-1
q-55 0 -101 -63.5t-89 -193.5l61 -24q18 56 36.5 97.5t32 63.5t27 35.5t20.5 17t13 3.5q22 0 49 -36t47.5 -81.5t33.5 -90.5l29 -103l91 269q17 54 34 93t29 57.5t23 28.5t15.5 11.5t7.5 0.5q42 -3 93 -145t84 -324h-536q-45 0 -82 -9t-59.5 -22t-40 -31t-25.5 -33.5
t-12.5 -31.5t-5.5 -23t-1 -9l-1 -33h417h192h62q118 0 152 -64h-214v-64z" />
    <glyph glyph-name="uniE605" unicode="&#xe605;" 
d="M495 220l-52 88l-206 -209h575l-123 371zM382.5 389q25.5 0 43.5 18t18 43.5t-18 43.5t-43.5 18t-43.5 -18t-18 -43.5t18 -43.5t43.5 -18zM824 721h-597q-48 0 -82 -34t-34 -82v-597q0 -48 34 -81.5t82 -33.5h597q48 0 82 33.5t34 81.5v597q0 48 -34 82t-82 34zM858 8
q0 -14 -10 -23.5t-24 -9.5h-597q-14 0 -24 9.5t-10 23.5v597q0 14 10 24t24 10h597q14 0 24 -10t10 -24v-597z" />
    <glyph glyph-name="uniE606" unicode="&#xe606;" 
d="M579 702v29q0 7 5 12t13 5t13 -5t5 -12v-38q13 -6 22 -14q24 -19 29 -45.5t-1 -48t-19 -51.5q-26 -55 -17 -68q21 -27 38 -60l1 -2q17 -32 30 -66q14 -38 22 -70q9 -33 17 -71q7 -30 13 -72q4 -22 11 -71l4 -29q9 -66 15 -101q3 -18 -15 -34t-38 -26q-26 -12 -56 -12
t-56 12q-11 5 -24 14q-9 -8 -22 -14q-27 -12 -57 -12t-56 12q-13 6 -23 14q-10 -7 -23 -14q-27 -12 -56.5 -12t-55.5 12q-23 10 -40.5 26t-13.5 35l1 1l15 100l4 28q4 32 10 71q6 35 13 72q10 45 17 71q10 36 23 70q11 31 29 65l1 1q16 33 38 62q9 12 -14 65q-1 2 -2 3
q-10 22 -15.5 38.5t-8 36.5t5.5 38t26 32q10 8 22 14v38q0 7 5.5 12t13 5t13 -5t5.5 -12v-29q38 3 66 -17q29 20 67 17zM717 -70q-7 48 -12 87l-5 28l-1 12q-22 -9 -45 -9t-46 10q-14 6 -25 15q-12 -10 -24 -15q-23 -10 -47 -10q-23 0 -46 10q-13 5 -25 15q-12 -10 -24 -15
q-23 -10 -47 -10q-22 0 -44 9l-2 -11l-4 -28q-6 -48 -13 -88q6 -5 16 -10q16 -7 31 -7t30 7q16 7 26 19q9 9 21.5 10t21.5 -7l2 -2q1 -1 1 -2q11 -11 25 -18q16 -7 31 -7t31 7q15 7 26 19q8 9 21 10t22 -7l3 -3q0 -1 1 -1q11 -12 24 -18q16 -7 31 -7t31 7q8 4 15 10zM693 95
l-3 20q-4 27 -12 70q-9 39 -17 67q-8 29 -20 64q-15 36 -27 60l-1 1q0 1 -3 6t-3.5 6t-3 5.5t-3.5 5.5t-3.5 4t-4 3.5t-4.5 2.5t-5.5 2.5t-6 1t-7.5 0.5q-22 0 -38 -14l-5 -5l-1 -2q-14 -12 -27 2q-3 3 -4 5q-15 14 -38 14q-6 0 -10.5 -1t-8.5 -3.5t-6.5 -3.5t-6 -6
t-4.5 -6.5t-4 -8.5l-5 -9l-1 -2q-15 -27 -26 -58q-11 -29 -21 -64q-8 -31 -16 -67q-3 -17 -13 -70l-3 -20q3 -1 8 -4q15 -6 31 -6q15 0 31 6q15 7 27 19q4 6 12 6.5t13 -4.5q16 -15 28 -21q15 -6 31 -6t32 6q14 7 25 19q5 6 13 6.5t13 -4.5q16 -15 28 -21q16 -6 31.5 -6
t31.5 6q3 2 7 4zM569 450q-4 11 -4.5 22.5t1 21t6.5 22.5t8 21t10 22q19 40 19 54q-1 14 -15.5 22.5t-31 6t-22.5 -15.5q-5 -11 -17 -16t-23 0q-12 6 -16 17q-7 13 -23 14.5t-30.5 -7t-14.5 -21.5t19 -54q6 -14 9.5 -22t8 -21t6 -22.5t1 -21t-3.5 -22.5q32 0 56 -18
q25 18 57 18v0z" />
    <glyph glyph-name="uniE607" unicode="&#xe607;" 
d="M829 754h-635q-47 0 -81 -33t-34 -80v-670q0 -47 34 -80t81 -33h635q47 0 80.5 33t33.5 80v670q0 47 -33.5 80t-80.5 33zM194 722h635q34 0 58 -23.5t24 -57.5v-484l-147 202q-4 6 -11.5 6.5t-12.5 -4.5l-253 -229l-113 171q-4 6 -11.5 7t-12.5 -4l-239 -225v560
q0 34 24.5 57.5t58.5 23.5zM111 -29v66l247 232l252 -379h-416q-34 0 -58.5 23.5t-24.5 57.5zM829 -110h-180l-144 215l243 221l163 -223v-132q0 -34 -24 -57.5t-58 -23.5zM352 412q46 0 79 33t33 79t-33 79t-79 33t-79 -33t-33 -79t33 -79t79 -33zM352 604q33 0 56.5 -23.5
t23.5 -56.5t-23.5 -56.5t-56.5 -23.5t-56.5 23.5t-23.5 56.5t23.5 56.5t56.5 23.5z" />
    <glyph glyph-name="uniE608" unicode="&#xe608;" 
d="M892 463q-29 60 -89 124q-53 56 -115 93q-78 47 -166 61q-40 7 -81 7q-73 0 -147 -21q-59 -17 -115 -46q-65 -33 -105 -67l-6 -6l-3 -8q-9 -26 2 -57q18 -56 92 -91q31 -14 71 -14q43 0 92 17q7 -9 15 -17q34 -30 84 -44l-98 -505q-3 -13 4.5 -24t20.5 -13q3 -1 6 -1
q11 0 20 7.5t11 18.5l98 506q11 -1 21 -1q56 0 95 22q67 -40 128 -40q12 0 24 2q81 12 117 38q27 21 27 45v8zM742 428q-7 -1 -15 -1q-24 0 -53 11t-40 18t-17 11l-23 20l-19 -23q-21 -18 -71 -18q-18 0 -40 3q-21 3 -39.5 10t-29 14t-18.5 15t-10.5 11.5t-3.5 6.5l-12 32
l-31 -16q-44 -21 -90 -21q-26 0 -44 9q-46 21 -58 49q-3 7 -3 14q37 29 84 52q116 59 232 59q36 0 71 -6q137 -22 243 -133q42 -44 71 -93q-25 -15 -84 -24zM735 173q-66 0 -112.5 -46.5t-46.5 -112.5t46.5 -113t112.5 -47t113 47t47 113t-47 112.5t-113 46.5zM735.5 -82
q-39.5 0 -68 28t-28.5 68q0 29 16 53t42 35q5 -15 20.5 -27.5t36.5 -17.5q37 -9 63 7q14 -23 14 -50q0 -40 -28 -68t-67.5 -28z" />
    <glyph glyph-name="uniE609" unicode="&#xe609;" 
d="M511 802q-102 0 -195.5 -39.5t-161 -107t-107 -161t-39.5 -196t39.5 -195.5t107 -160.5t161 -107.5t196 -40t196 40t161 107.5t107 160.5t39.5 195.5t-39.5 196t-107 161t-161 107t-196.5 39.5zM934 424l-2 -2q-1 -1 -2 -1q-37 -27 -53 -52q-18 -28 -19 -84
q-1 -25 -3 -32t-9 -10q-37 -14 -58 7q-3 3 4 24q14 47 1 75q-6 15 -18 26.5t-20.5 16t-23.5 11.5q-25 11 -28 20q-8 25 7.5 47.5t59.5 56.5q21 17 41 24t53 12q48 -64 70 -139zM251 -17q-19 0 -51 4q-58 58 -91.5 134t-36.5 161q54 -7 79 -14q1 0 6 -3q16 -12 31 -14
q5 -1 11 -1q25 0 66 10t59 27q12 12 15 30q1 -1 3 -5q14 -29 36 -37q25 -10 58 6q8 4 9 4q8 -3 21 -19l3 -4q2 -2 4 -14q6 -41 34 -55q16 -7 57 -3q20 3 23 3q14 -6 18 -21q1 -3 1 -6q-7 -1 -27 -3q-40 -4 -54 -14q-23 -15 -37 -30t-24 -39q-7 -17 -5 -44q1 -12 0 -16
q-7 -17 -14.5 -24.5t-20.5 -11.5q-6 -2 -19 2q-19 4 -31 5h-5q-29 1 -48 0q-9 -1 -23 -4q-10 -1 -16 -2q-16 -2 -31 -2zM511 -142q-122 0 -228 64h3h3q7 1 19 3q11 2 18 3q15 1 40 0h6l18 -3q30 -8 52 -1q51 15 75 72q7 18 5 45q-1 12 1 16q5 13 12 20.5t24 18.5q4 2 26 4
q19 2 29 3.5t23 7.5t20 17q19 28 9 62q-13 43 -54 61q-16 6 -55 2q-15 -2 -21 -2q-1 2 -1 7q-5 28 -17 44l-3 3q-24 31 -50 40q-24 8 -56 -7l-8 -4l-3 6q-14 28 -34 36l-3 2q-19 9 -33 9q-11 0 -21 -5q-28 -11 -30 -49v-3q-11 -5 -37 -11t-42 -6q-1 0 -5 3q-13 10 -25 13
q-34 9 -95 16q11 109 72 199.5t157.5 143t208.5 52.5q87 0 165.5 -32.5t138.5 -89.5q-47 -12 -84 -42q-14 -10 -21 -16t-20.5 -18.5t-20.5 -22t-16 -24t-12 -27.5t-3 -30t5 -34t17 -29.5t21 -17.5t25 -12q26 -11 30 -21q3 -7 -5 -31q-5 -16 -7 -26.5t1.5 -28t16.5 -31.5
q32 -32 77 -32q24 0 49 9q18 7 29.5 18.5t16 27.5t5.5 26t2 27q1 39 9 52q7 11 18 21q4 -32 4 -57q0 -90 -34.5 -171.5t-94 -140.5t-141 -94t-171.5 -35zM521 673q-5 0 -10 -1q-20 -5 -33 -15.5t-20 -27t-9.5 -28t-5.5 -30.5q-3 -22 -5 -32q-2 -6 -8 -21q-7 -16 -10.5 -27
t-0.5 -30t19 -33q19 -15 43 -15q23 0 62 22q18 9 29.5 22t18.5 30.5t9.5 29t6.5 31.5l1 8q7 39 -31 84q-27 33 -56 33zM545 559q-6 -33 -12 -47t-21 -23q-25 -13 -31 -13q1 4 6 17q9 20 12 31q3 13 7 38q6 41 15 47q7 -7 16 -21t9 -21zM545 559z" />
    <glyph glyph-name="uniE60A" unicode="&#xe60a;" horiz-adv-x="1277" 
d="M891 273q-10 11 -25.5 12t-26.5 -10l-149 -133l-179 239q-11 13 -27 15q-18 0 -29 -11l-444 -450q-11 -11 -11 -26.5t11 -26t26 -10.5t26 11l282 285l196 -262q11 -14 30 -14q12 0 22 7q12 9 14.5 24.5t-6.5 27.5l-204 270l80 81l178 -237q10 -13 26 -14q16 -2 28 9
l152 136l259 -287q10 -12 25 -12.5t26.5 9.5t12.5 25.5t-10 26.5zM888 726q15 0 26 11t11 26v96q0 15 -11 26t-26 11t-26 -11t-11 -26v-96q0 -15 11 -26t26 -11zM888 364q59 0 101.5 42t42.5 101.5t-42.5 102t-102 42.5t-101.5 -42.5t-42 -102t42 -101.5t102 -42zM888 578
q29 0 49.5 -20.5t20.5 -49.5t-20.5 -49.5t-49.5 -20.5t-49.5 20.5t-20.5 49.5t20.5 49.5t49.5 20.5zM536 482h96q16 0 26.5 11t10.5 26t-10.5 26t-26.5 11h-96q-15 0 -26 -11t-11 -26t11 -26t26 -11zM1239 556h-95q-16 0 -26.5 -11t-10.5 -26t10.5 -26t26.5 -11h95
q16 0 26.5 11t10.5 26t-10.5 26t-26.5 11zM681 662q11 -10 26.5 -10t26 10.5t10.5 26t-11 26.5l-75 74q-10 11 -25.5 11t-26.5 -10.5t-11 -26t11 -26.5zM1043 353q-11 -10 -11 -25.5t11 -26.5l74 -75q11 -10 26.5 -10t26.5 10.5t11 26t-11 26.5l-75 74q-11 11 -26.5 11
t-25.5 -11zM676 353l-37 -36q-10 -11 -10 -26t10.5 -26t26 -11t26.5 11l36 36q11 11 11 26.5t-11 26t-26.5 10.5t-25.5 -11zM1069 652q15 0 26 10l75 75q11 11 11 26.5t-11 26t-26.5 10.5t-26.5 -11l-74 -74q-11 -11 -11 -26.5t10.5 -26t26.5 -10.5zM1069 652z" />
    <glyph glyph-name="uniE60B" unicode="&#xe60b;" horiz-adv-x="1353" 
d="M1012 257l-301 -341l30 -44h612zM646 -128q-14 18 -18 27q-1 1 -2 3t-2 3l-16 30v1l-1 1q-24 47 -45 103q0 1 -1 3.5t-1 3.5q-6 15 -10 27q-1 2 -2 5.5t-2 5.5q-4 13 -8 24q-1 2 -1.5 4t-1 4.5t-1.5 3.5q-4 15 -7 23q-42 145 -57.5 238.5t-8.5 123.5v8q57 6 131 -5
q31 -5 77 -21.5t73.5 -25.5t32.5 0q2 5 -18.5 29.5t-54.5 53t-63 40.5q28 5 59.5 6.5t50.5 1.5t49 -1.5t36 -1.5t14.5 -0.5t14.5 -0.5t11.5 -0.5t9 0t4.5 1.5q3 4 -8.5 13.5t-30 19t-34.5 15.5q-2 0 -5 1q-77 26 -154 8q-88 -20 -182 -83l1 3q11 29 29 55t34.5 42.5t42 34
t39.5 25t39 19.5t30 14.5t11.5 6t11.5 5.5l8 4q5 2 7 4t2 4q0 8 -34 13t-60 2h-6q-79 -7 -122 -57q-27 -31 -45 -76q-7 98 -40 157q-15 27 -37.5 44.5t-45 23t-35 7t-21.5 1.5q-10 -2 -8.5 -21.5t11.5 -50.5q6 -18 16 -36t27.5 -47t27.5 -48q12 -21 38 -67q-45 53 -94 77
q-59 28 -135 3q-3 -2 -5 -2q-16 -5 -36 -15.5t-33 -21.5t-12 -15q1 -3 7 -3.5t20 -1t19 -0.5q6 -1 34 -2t44 -2t46 -6.5t51.5 -14.5t48.5 -25.5t49 -38.5l4 -4q-102 38 -188 38q-39 1 -74.5 -9t-46 -16t-32.5 -19q-15 -9 -31 -22.5t-25 -25t-5 -14.5q2 -1 9 0t22 5.5t22 5.5
q6 2 36.5 10t48 12.5t52 10t62.5 7t64.5 -1t71.5 -10.5q-94 -20 -134 -99q-14 -27 -16 -76.5t4.5 -87t12.5 -39.5q6 -1 12.5 9.5t13.5 30t14.5 41t18 47t21.5 43.5q41 68 83 108q-2 -51 -2.5 -92t2.5 -81t5 -63.5t10.5 -65.5t12 -57t14.5 -66h1q16 -71 37 -137l1 -2
q3 -10 7 -21q0 -1 0.5 -1.5t0.5 -1.5q1 -3 5.5 -13.5t8.5 -19.5l3 -9h121zM493 553q10 4 27 8t56 3t65 -17q6 -3 3 -9q-2 -4 -6 -4q-2 0 -4 1q-24 15 -60 15.5t-52.5 -3.5t-24.5 -7q-6 -2 -8.5 4.5t4.5 8.5zM361 480q-8 -6 -19.5 -16t-33 -40t-27.5 -59q-1 -5 -7 -5h-1
q-7 1 -6 8q7 31 29.5 62.5t35 43t21.5 17.5q5 4 9 -1.5t-1 -9.5zM428 605h-1q-6 0 -7 7q-1 35 -12 72.5t-23 62.5t-28 50.5t-21.5 32t-10.5 12.5q-4 5 1 9.5t9.5 -0.5t11.5 -14t23 -34t28 -51t23 -64.5t13 -75.5q0 -7 -6 -7zM280 -128h178q-32 50 -57 142zM587 212
q2 -14 9 -53t9.5 -51.5t10 -39.5t17.5 -47.5t25 -44.5v1l208 246l-138 162zM587 212z" />
    <glyph glyph-name="uniE60C" unicode="&#xe60c;" horiz-adv-x="1098" 
d="M731 -128h366v39q0 101 -93 148q-63 32 -163 32h-110h-219h-439q42 74 183 74h768v73q-7 41 -15.5 84.5t-24 110.5t-32.5 125t-41.5 121t-50.5 108.5t-59.5 75.5t-69.5 33q-62 4 -118.5 -65t-104.5 -214l-33 -87q-15 35 -34.5 66t-44.5 59t-55.5 44t-62.5 16h-1
q-67 0 -123.5 -75.5t-108.5 -232.5l75 -28q21 66 43.5 116t39.5 76.5t33 42.5t25 20.5t16 4.5q28 0 61 -43.5t57.5 -98t40.5 -107.5l35 -123l112 322q21 64 43 111t39 70t32.5 36t23 15.5t10.5 1.5q34 -3 76.5 -92.5t80 -220.5t63.5 -272h-695q-54 0 -97.5 -8t-69.5 -19.5
t-45 -28t-27 -30t-12.5 -29t-4.5 -21.5v-10v-1v-73h512h219h110q143 0 183 -73h-293v-73z" />
    <glyph glyph-name="uniE60D" unicode="&#xe60d;" horiz-adv-x="1025" 
d="M939 795zM981 695zM928 896h-832q-40 0 -68 -28t-28 -68v-832q0 -40 28 -68t68 -28h832q40 0 68 28t28 68v832q0 40 -28 68t-68 28zM96 832h832q14 0 23 -9.5t9 -22.5v-451q-121 99 -248 99q-35 0 -71.5 -11.5t-78 -37.5t-67.5 -45t-74 -56q-48 -38 -74.5 -57.5
t-63.5 -39t-61 -19.5q-34 0 -69.5 15.5t-54 30t-34.5 29.5v543q0 13 9.5 22.5t22.5 9.5zM928 -64h-832q-13 0 -22.5 9.5t-9.5 22.5v206q79 -56 158 -56q27 0 55 9.5t62.5 31.5t57 38.5t64.5 49.5q43 34 66.5 51.5t60 41t67 34t57.5 10.5q39 0 79 -13t67.5 -29t53.5 -37
t35 -29.5t13 -13.5v-294q0 -13 -9 -22.5t-23 -9.5zM320 374q53 0 90.5 37.5t37.5 90.5t-37.5 90.5t-90.5 37.5t-90.5 -37.5t-37.5 -90.5t37.5 -90.5t90.5 -37.5zM320 566q27 0 45.5 -18.5t18.5 -45t-18.5 -45.5t-45 -19t-45.5 19t-19 45.5t19 45t45 18.5z" />
    <glyph glyph-name="uniE60E" unicode="&#xe60e;" 
d="M125 -114q-5 0 -10 2q-9 4 -12 13t0 18l82 181q4 9 13 12.5t17.5 -0.5t12 -13t-0.5 -18l-81 -181q-6 -14 -21 -14zM230 -114q-4 0 -9 2q-9 4 -12.5 13t0.5 18l82 181q3 9 12 12.5t18 -0.5t12.5 -13t-0.5 -18l-81 -181q-6 -14 -22 -14zM927 -114q-15 0 -21 14l-81 181
q-4 9 -0.5 18t12 13t17.5 0.5t13 -12.5l82 -181q4 -9 0.5 -18t-12.5 -13q-4 -2 -10 -2zM825 -114q-16 0 -22 14l-81 181q-4 9 -0.5 18t12.5 13t17.5 0.5t12.5 -12.5l82 -181q4 -9 0.5 -18t-12.5 -13q-4 -2 -9 -2zM970 68h-878q-22 0 -38 15.5t-16 38.5v78q0 10 7 17t16 7
h909q22 0 38 -16t16 -38v-48q0 -23 -16 -38.5t-38 -15.5zM84 177v-55q0 -8 8 -8h878q8 0 8 8v48q0 7 -8 7h-886zM197 180h-135q-9 0 -16 6.5t-7 16.5v103q0 23 16 38.5t38 15.5h72q23 0 38.5 -15.5t15.5 -38.5v-103q1 -10 -6 -16.5t-16 -6.5zM86 226h87v80q0 8 -7 8h-73
q-7 0 -7 -8v-80zM770 355q-10 0 -16 7q-59 73 -125 79q-26 2 -51 -5.5t-36.5 -15.5t-12.5 -10q-7 -6 -17 -4q-10 1 -14 10q-57 98 -153 99q-21 1 -42.5 -4t-31.5 -9t-11 -5q-8 -4 -17 -0.5t-12 12.5q-26 80 -116 98q-45 8 -90 1q-12 -2 -19.5 6t-4.5 19q2 7 4.5 15t13.5 31
t25.5 43.5t40.5 45t57 41.5q134 74 341 6q135 -44 214 -123q65 -64 89 -148q12 -42 12.5 -87t-3 -62t-5.5 -26q-4 -12 -16 -14h-4zM617 483q8 0 16 -1q66 -6 123 -62q6 59 -11 115q-49 167 -275 241q-189 62 -308 -3q-73 -40 -111 -121q39 2 71 -5q102 -19 140 -105
q41 15 83 15q109 -2 176 -102q47 28 96 28zM502 794q-4 0 -7 1q-8 2 -12 10t-1 16l17 49q2 8 10 11.5t16 1t11.5 -10.5t1.5 -16l-17 -49q-5 -13 -19 -13zM515 406q-3 0 -7 1q-8 3 -11.5 10.5t-0.5 15.5t8 23.5t15 54.5t15.5 75t3.5 77.5t-16 68.5q-17 33 -51 44
q-37 10 -69 -9q-79 -48 -131 -256q-2 -8 -9 -12.5t-15.5 -3t-13 8.5t-3.5 16q4 15 11 41t25 77t48.5 96.5t66.5 67.5q47 29 101 13q52 -15 77 -64q19 -39 21 -95.5t-11 -112t-20.5 -82t-13.5 -42.5q-6 -13 -20 -13zM255 200q-5 0 -10 2q-9 4 -12 13t1 17l130 280
q4 9 13 12.5t17.5 -1t12 -13.5t-0.5 -17l-130 -280q-7 -13 -21 -13z" />
    <glyph glyph-name="uniE60F" unicode="&#xe60f;" 
d="M1024 -16v-52q0 1 -3.5 2.5t-8 3.5t-5.5 2q-9 5 -16 9q-15 10 -29 24q-28 29 -41 62q-3 9 -6 21q-1 1 -2.5 6t-1.5 8q-1 2 -1 3q0 10 -1 19q-1 28 -1 34q0 13 5 22q2 5 7 12.5t6 10.5q4 7 11 24q2 3 5.5 11.5t4.5 12.5q7 16 16 50q6 20 10 53q3 22 4 55v7q0 95 -36.5 181
t-99 148.5t-148.5 99t-181 36.5t-181 -36.5t-148.5 -99t-99 -148.5t-36.5 -181t36.5 -181t99 -148.5t148.5 -99t181 -36.5q140 0 256 76v-55q-118 -68 -256 -68q-139 0 -257 68.5t-186.5 186.5t-68.5 257t68.5 257t186.5 186.5t257 68.5t257 -68.5t186.5 -186.5t68.5 -257
q0 -137 -68 -254q-2 -13 -2 -25q0 -38 19 -70.5t51 -50.5zM512.5 34q-48.5 0 -82.5 34.5t-34 82.5t34 82t82.5 34t82.5 -34t34 -82t-34 -82.5t-82.5 -34.5zM512 221q-29 0 -49.5 -20.5t-20.5 -49.5t20.5 -49.5t49.5 -20.5t49.5 20.5t20.5 49.5t-20.5 49.5t-49.5 20.5z
M279.5 267q-48.5 0 -82.5 34t-34 82.5t34 82.5t82.5 34t82.5 -34t34 -82.5t-34 -82.5t-82.5 -34zM279.5 454q-28.5 0 -49 -20.5t-20.5 -49.5t20.5 -49.5t49 -20.5t49 20.5t20.5 49.5t-20.5 49.5t-49 20.5zM512.5 733q48.5 0 82.5 -34t34 -82.5t-34 -82.5t-82.5 -34t-82.5 34
t-34 82.5t34 82.5t82.5 34zM512 547q29 0 49.5 20.5t20.5 49.5t-20.5 49t-49.5 20t-49.5 -20t-20.5 -49t20.5 -49.5t49.5 -20.5zM629 383.5q0 48.5 34 82.5t82 34t82.5 -34t34.5 -82.5t-34.5 -82.5t-82.5 -34t-82 34t-34 82.5zM815 384q0 29 -20.5 49.5t-49.5 20.5
t-49.5 -20.5t-20.5 -49.5t20.5 -49.5t49.5 -20.5t49.5 20.5t20.5 49.5z" />
    <glyph glyph-name="uniE610" unicode="&#xe610;" 
d="M34 164q-8 0 -14 6t-6 14t6 13q41 41 96 44q57 3 94 -35q6 -6 6 -14t-6 -13.5t-14 -5.5t-13 6q-26 25 -64 23q-40 -2 -71 -33q-6 -5 -14 -5zM273 139q-52 0 -87 35q-6 6 -5.5 14t6 13.5t13.5 5.5t14 -6q25 -25 64 -23q40 3 71 33q6 5 14 5t13.5 -5.5t5.5 -14t-6 -13.5
q-41 -41 -96 -44h-7zM350.5 166q-8.5 0 -14 6t-5.5 14t6 14q41 40 96 43q57 4 94 -35q6 -5 6 -13.5t-6 -14t-14 -5.5t-14 6q-25 26 -64 23q-40 -2 -71 -32q-5 -6 -13.5 -6zM580 152q-52 0 -86 34q-6 6 -6 14t6 14t14 6t14 -6q25 -26 65 -23t70 33q5 6 13.5 6t14 -6t5.5 -14
t-6 -14q-44 -44 -104 -44zM661 182q-9 0 -15 6q-5 6 -5 14t6 14q44 39 98 40q57 1 93 -39q5 -6 5 -14t-6 -13.5t-14.5 -5t-13.5 6.5q-24 26 -63 26q-40 -1 -72 -30q-6 -5 -13 -5zM904 148q-57 0 -91 39q-6 7 -5.5 14.5t6.5 13t14.5 5t13.5 -6.5q24 -26 62 -26h1q41 0 72 28
q7 5 15 4.5t13 -6.5q13 -14 -2 -27q-42 -38 -98 -38h-1zM34 30q-8 0 -14 6t-6 14t6 14q41 41 96 44q57 3 94 -35q6 -6 6 -14t-6 -14t-14 -5.5t-13 5.5q-26 26 -64 24q-40 -3 -71 -33q-6 -6 -14 -6zM273 5q-52 0 -87 36q-6 5 -5.5 13.5t6 14t13.5 5.5t14 -6q25 -26 64 -23
q40 2 71 32q6 6 14 6t13.5 -6t5.5 -14t-6 -14q-41 -40 -96 -43q-2 -1 -7 -1zM350.5 33q-8.5 0 -14 5.5t-5.5 14t6 13.5q41 41 96 44q57 3 94 -35q6 -6 6 -14t-6 -13.5t-14 -5.5t-14 6q-25 25 -64 23q-40 -2 -71 -33q-5 -5 -13.5 -5zM580 18q-52 0 -86 35q-6 5 -6 13.5t6 14
t14 5.5t14 -6q25 -25 65 -22t70 33q5 5 13.5 5t14 -5.5t5.5 -13.5t-6 -14q-44 -45 -104 -45zM661 48q-9 0 -15 7q-5 6 -5 14t6 13q44 40 98 40q57 1 93 -38q5 -6 5 -14.5t-6 -13.5t-14.5 -5t-13.5 6q-24 27 -63 26q-40 -1 -72 -29q-6 -6 -13 -6zM904 13q-56 0 -91 40
q-6 6 -5.5 14t7 13.5t14.5 5t13 -6.5q24 -28 62 -28h1q40 0 72 30q7 5 15 4.5t13 -6.5t4.5 -14t-6.5 -14q-44 -38 -98 -38h-1zM34 -103q-8 0 -14 6t-6 14t6 14q41 40 96 43q57 4 94 -35q6 -5 6 -13.5t-6 -14t-14 -5.5t-13 6q-26 26 -64 23q-40 -2 -71 -32q-6 -6 -14 -6z
M273 -128q-52 0 -87 35q-6 6 -5.5 14t6 14t13.5 6t14 -6q25 -26 64 -24q40 3 71 33q6 6 14 5.5t13.5 -6t5.5 -13.5t-6 -14q-41 -41 -96 -44h-7zM350.5 -101q-8.5 0 -14 6t-5.5 14t6 14q41 41 96 44q57 3 94 -35q6 -6 6 -14t-6 -14t-14 -6t-14 6q-25 26 -64 24
q-40 -3 -71 -33q-5 -6 -13.5 -6zM580 -115q-52 0 -86 34q-6 6 -6 14t6 14t14 6t14 -6q25 -26 65 -23t70 33q5 6 13.5 6t14 -6t5.5 -14t-6 -13q-44 -45 -104 -45zM661 -85q-9 0 -15 6q-5 6 -5 14.5t6 13.5q44 39 98 40q57 1 93 -39q5 -6 5 -14t-6 -13.5t-14.5 -5t-13.5 6.5
q-24 26 -63 26q-40 -1 -72 -30q-6 -5 -13 -5zM904 -120q-56 0 -91 40q-6 6 -5.5 14t6.5 13.5t14.5 5.5t13.5 -7q23 -25 62 -25h1q41 0 72 28q7 5 15 4.5t13 -7t4.5 -14.5t-6.5 -13q-44 -39 -98 -39h-1zM314 322q-6 0 -12 4l-5 3l-3 4q-46 67 -46 150q0 109 77.5 187
t187.5 78t187.5 -78t77.5 -187q0 -45 -30 -123l-1 -2l-3 -4q-5 -8 -14 -9t-16.5 4t-9 14t3.5 16q26 67 26 104q0 91 -65 155.5t-156 64.5t-156 -64.5t-65 -155.5q0 -67 37 -122q14 -13 3 -29q-6 -10 -18 -10zM512 873v-64v64zM512 788q-9 0 -16 6.5t-7 15.5v64q0 9 7 15.5
t16 6.5t16 -6.5t7 -15.5v-64q0 -9 -7 -15.5t-16 -6.5zM801 736l-45 -45zM756 669q-9 0 -15.5 6.5t-6.5 15.5t7 16l45 45q6 6 15 6t15.5 -6.5t6.5 -15.5t-6 -15l-45 -45q-7 -7 -16 -7zM901 507h-61h61zM902 484h-63q-10 0 -16 5.5t-6 14.5t6 15t16 6h63q10 0 16 -6t6 -15
t-6 -14.5t-16 -5.5zM184 507h-64h64zM183 484h-64q-9 0 -15.5 5.5t-6.5 14.5t6.5 15t15.5 6h64q9 0 15.5 -6t6.5 -15t-6.5 -14.5t-15.5 -5.5zM270 691l-45 45zM270.5 669q-9.5 0 -15.5 7l-45 45q-7 6 -7 15t6.5 15.5t15.5 6.5t16 -6l45 -45q6 -7 6 -16t-6 -15.5t-15.5 -6.5z
" />
    <glyph glyph-name="uniE611" unicode="&#xe611;" horiz-adv-x="1000" 
d="M521.5 409q-35.5 0 -60.5 -25t-25 -60.5t25 -60.5t60.5 -25t60.5 25t25 60.5t-25 60.5t-60.5 25zM521.5 262q-25.5 0 -43.5 18t-18 43.5t18 43.5t43.5 18t43.5 -18t18 -43.5t-18 -43.5t-43.5 -18zM515 755q-89 0 -170.5 -34.5t-140 -93.5t-93.5 -140t-35 -170.5
t35 -170.5t93.5 -139.5t140 -93.5t170.5 -35t170 35t140 93.5t93.5 139.5t34.5 170.5t-34.5 170.5t-93.5 140t-140 93.5t-170 34.5zM515 -95q-112 0 -207 55t-150 150t-55 206.5t55 206.5t150 150t207 55t206.5 -55t149.5 -150t55 -206.5t-55 -206.5t-149.5 -150t-206.5 -55
zM516.5 660q-5.5 0 -9.5 -5t-4 -12v-247q10 3 20 3h7v244q0 7 -4 12t-9.5 5zM842 344h-246q3 -10 3 -20v-7h243q7 0 12 4t5 9.5t-5 9.5t-12 4z" />
    <glyph glyph-name="uniE612" unicode="&#xe612;" 
d="M132 -148v58q1 27 1 88.5t1 107.5t3 88q1 36 13 59t33 33.5t45 13.5t58 1q9 -1 21 -25q16 -31 163 -329q9 -18 20 -26q-55 275 -66 324q-6 29 15 48q7 6 79 74q-131 15 -176 113q-28 62 -10 130q16 64 71.5 102.5t125.5 34.5q65 -3 114.5 -50t58.5 -114q10 -80 -35 -132
t-158 -88q72 -64 78 -69q23 -19 16 -51q-39 -181 -59 -323q17 31 17 33q130 262 160 324q7 15 16 20.5t25 5.5q70 -1 99 -29.5t31 -96.5v-325h-760z" />
    <glyph glyph-name="uniE613" unicode="&#xe613;" 
d="M514.5 -81q-93.5 0 -178.5 36.5t-146.5 98t-98 146.5t-36.5 178.5t36.5 178.5t98 146.5t146.5 98t178.5 36.5t178.5 -36.5t146.5 -98t98 -146.5t36.5 -178.5t-36.5 -178.5t-98 -146.5t-146.5 -98t-178.5 -36.5zM514.5 806q-115.5 0 -214 -57.5t-156 -156t-57.5 -214
t57.5 -214t156 -156t214 -57.5t214 57.5t156 156t57.5 214t-57.5 214t-156 156t-214 57.5zM752 384h-256v240q0 7 -4.5 11.5t-11.5 4.5t-11.5 -4.5t-4.5 -11.5v-256q0 -7 4.5 -11.5t11.5 -4.5h272q7 0 11.5 4.5t4.5 11.5t-4.5 11.5t-11.5 4.5z" />
    <glyph glyph-name="uniE614" unicode="&#xe614;" 
d="M513 -202q-102 0 -195 39.5t-160 106.5t-107 160t-40 195.5t40 195.5t107 160t160 107t195 40t195 -40t160 -107t107 -160t40 -195.5t-40 -195.5t-107 -160t-160 -106.5t-195 -39.5zM513 739q-89 0 -170.5 -35t-140.5 -94t-93.5 -140t-34.5 -170.5t34.5 -170.5t93.5 -140
t140.5 -94t170.5 -35t170.5 35t140.5 94t93.5 140t34.5 170.5t-34.5 170.5t-93.5 140t-140.5 94t-170.5 35zM890 299.5q0 -12.5 -9.5 -22t-22.5 -9.5h-257q-10 -28 -34 -45.5t-54 -17.5q-39 0 -66.5 28t-27.5 67q0 30 17.5 54t45.5 34v257q0 13 9 22t22 9t22 -9t9 -22v-257
q42 -15 57 -57h257q13 0 22.5 -9.5t9.5 -22zM513 331q-13 0 -22 -9.5t-9 -22t9 -22t22 -9.5t22 9.5t9 22t-9 22t-22 9.5zM734 519q-9 9 -9 22t9 22.5t22 9.5t22 -9.5t9 -22.5t-9 -22t-22 -9t-22 9zM246.5 521q-9.5 9 -9.5 22t9.5 22.5t22.5 9.5t22 -9.5t9 -22.5t-9 -22
t-22 -9t-22.5 9zM291 78.5q9 -9.5 9 -22.5t-9 -22t-22 -9t-22.5 9t-9.5 22t9.5 22.5t22.5 9.5t22 -9.5zM513 -14q13 0 22 -9.5t9 -22.5t-9 -22t-22 -9t-22 9t-9 22t9 22.5t22 9.5zM779 77.5q9 -9.5 9 -22.5t-9 -22t-22 -9t-22.5 9t-9.5 22t9.5 22.5t22.5 9.5t22 -9.5z
M168 268q-13 0 -22.5 9.5t-9.5 22t9.5 22t22.5 9.5t22 -9.5t9 -22t-9 -22t-22 -9.5z" />
    <glyph glyph-name="uniE615" unicode="&#xe615;" 
d="M512 621q99 0 183.5 -49t134 -133.5t49.5 -184t-49.5 -184t-134 -133.5t-183.5 -49t-183.5 49t-134 133.5t-49.5 184t49.5 184t134 133.5t183.5 49zM512 645q-106 0 -196 -52.5t-142 -142t-52 -195.5t52 -196t142 -142t196 -52t196 52t142 142t52 196t-52 195.5t-142 142
t-196 52.5zM142 551l-18 14q93 121 237 170l7 -22q-137 -47 -226 -162zM863 551q-89 115 -226 162l7 22q144 -49 237 -170zM729 111l-228 136v199h24v-186l216 -129z" />
    <glyph glyph-name="uniE616" unicode="&#xe616;" 
d="M161 -54q1 1 1 4q0 18 4 51q6 44 20 86q14 40 35 74q17 26 37 49q24 27 55 48q29 21 67 36q3 2 5 -2q35 -58 62 -101q19 -31 62 -104q2 -3 3 -3t3 4q45 68 70 106q7 12 21 33.5t17 26.5l22 33q2 3 5 2q30 -14 57 -32q30 -21 56 -50q28 -30 49 -70q28 -52 41 -117
q5 -27 7 -51q2 -23 2 -28q0 -2 1 -3v-20q-2 -1 -5 -3q-60 -23 -119 -38q-65 -16 -125 -22q-34 -3 -60 -4q-35 -1 -71 0q-58 0 -131 13q-62 11 -125 31q-32 10 -61 20q-3 2 -5 3v28zM521 748q1 0 12 -1q25 -3 51 -14q21 -9 40 -22q21 -16 37 -35q24 -30 36 -66q7 -20 9 -41
q1 -16 0 -32q-2 -31 -15 -63q-11 -26 -29 -48q-17 -20 -37 -35q-26 -19 -56 -29q-20 -6 -40 -8q-42 -4 -81 9q-37 12 -68 39q-30 25 -48 61q-15 29 -19 62q-2 19 -1 36q1 33 14 64q13 30 34 54q16 19 34 31q33 24 71 33q17 4 29 4q2 0 3 1h24z" />
    <glyph glyph-name="uniE617" unicode="&#xe617;" 
d="M696 122q-13 5 -52.5 22t-60.5 26q-22 6 -31 8q-10 8 -31 51q-1 0 -8.5 1t-10.5 2q0 12 8.5 22.5t10.5 16.5t3 23t5 24q3 5 11.5 9.5t11.5 8.5q6 9 10 29q6 36 -2 54q-8 17 -9 22q-1 8 1.5 37.5t2.5 30.5q1 43 -6 72q-7 22 -19 29l-23 4l-14 13q-20 12 -42 16.5t-44 0
t-34.5 -8.5t-30.5 -11q-38 -12 -55 -61t-2 -120q2 -10 -3.5 -20.5t-4.5 -13.5q0 -1 1 -14.5t2 -20t3 -18t6 -18.5t9 -10q1 -1 4.5 -2t7.5 -2h3l3 -30q2 -20 3 -29q2 -5 10 -13.5t9 -19.5l-14 -3q-21 -43 -31 -51q-13 -3 -31 -8q-21 -9 -61 -26t-52 -22q-7 -3 -24.5 -9
t-26 -10t-19 -13t-14.5 -21q0 -8 -1 -50t-1 -60h719q0 18 -1 60t-1 50q-4 12 -14.5 21t-19 13t-26 10t-24.5 9zM959 87q-3 9 -10.5 15.5t-13.5 9t-18.5 7t-17.5 6.5q-9 4 -37.5 16t-42.5 18q-4 1 -7.5 2t-8 2.5t-6.5 1.5q-8 5 -23 36q-1 1 -14 2q1 9 7 16.5t7.5 12t2 16.5
t3.5 17q2 3 8 6.5t8 5.5q5 7 7 21q5 26 -1 39q-6 12 -6 15q-1 6 1 28l2 21q1 31 -5 51q-5 16 -13 21l-16 3l-11 9q-41 25 -108 -2q-26 -9 -38.5 -43.5t-1.5 -85.5q2 -7 -2 -14.5t-4 -9.5q0 -1 1 -10.5t1.5 -14.5t2 -13t4 -13t6.5 -7q1 0 3.5 -1t5.5 -1l2 -1q1 -8 2.5 -22.5
t1.5 -19.5q2 -3 7.5 -9.5t6.5 -13.5l-10 -3q-10 -21 -15 -28q20 -8 39 -16q28 -12 44 -19q7 -3 22 -8q19 -7 29.5 -11.5t24 -16.5t18.5 -28l1 -3v-2q0 -9 1 -39v-21h162q0 13 -0.5 43t-0.5 35zM959 87z" />
    <glyph glyph-name="uniE618" unicode="&#xe618;" 
d="M298 347q-70 0 -119 49.5t-49 119t49 119t119 49.5t119.5 -49.5t49.5 -119t-49.5 -119t-119.5 -49.5zM298.5 633q-48.5 0 -83 -34.5t-34.5 -83t34.5 -83t83 -34.5t82.5 34.5t34 83t-34 83t-82.5 34.5zM727.5 347q-69.5 0 -119 49.5t-49.5 119t49.5 119t119 49.5
t119 -49.5t49.5 -119t-49.5 -119t-119 -49.5zM727.5 633q-48.5 0 -83 -34.5t-34.5 -83t34.5 -83t83 -34.5t83 34.5t34.5 83t-34.5 83t-83 34.5zM296.5 -82q-69.5 0 -119 49.5t-49.5 119t49.5 119t119 49.5t119 -49.5t49.5 -119t-49.5 -119t-119 -49.5zM296.5 204
q-48.5 0 -83 -34.5t-34.5 -83t34.5 -83t83 -34.5t83 34.5t34.5 83t-34.5 83t-83 34.5zM726 -82q-70 0 -119.5 49.5t-49.5 119t49.5 119t119.5 49.5t119 -49.5t49 -119t-49 -119t-119 -49.5zM725.5 204q-48.5 0 -82.5 -34.5t-34 -83t34 -83t82.5 -34.5t83 34.5t34.5 83
t-34.5 83t-83 34.5z" />
    <glyph glyph-name="uniE619" unicode="&#xe619;" 
d="M512 760q-96 0 -183.5 -37.5t-150.5 -100.5t-100.5 -150.5t-37.5 -183.5t37.5 -183.5t100.5 -150.5t150.5 -100.5t183.5 -37.5t183.5 37.5t150.5 100.5t100.5 150.5t37.5 183.5t-37.5 183.5t-100.5 150.5t-150.5 100.5t-183.5 37.5zM512 -152q-90 0 -171.5 35t-140 93.5
t-93.5 140t-35 171.5t35 171.5t93.5 140t140 93.5t171.5 35t171.5 -35t140 -93.5t93.5 -140t35 -171.5t-35 -171.5t-93.5 -140t-140 -93.5t-171.5 -35zM502 589q-24 0 -40 -14.5t-16 -33.5v-293q0 -20 15.5 -35.5t40.5 -15.5t40 15.5t15 35.5v293q0 20 -15 34t-40 14z
M537 264q0 -15 -10 -25t-25 -10t-25 10t-10 25v263q0 14 10 24.5t25 10.5t25 -10.5t10 -24.5v-263zM743 77l-201 212q-14 15 -34.5 16t-41.5 -17q-18 -17 -18.5 -39.5t13.5 -35.5l201 -213q14 -14 34 -14t40 17q17 17 18.5 38.5t-11.5 35.5zM717 23q-11 -10 -25.5 -9.5
t-24.5 10.5l-180 191q-10 11 -10 25.5t11 24.5t25.5 10t24.5 -11l180 -191q11 -11 10.5 -25.5t-11.5 -24.5z" />
    <glyph glyph-name="uniE61A" unicode="&#xe61a;" 
d="M908 6h-109v109q0 8 -5.5 13.5t-13.5 5.5t-13.5 -5.5t-5.5 -13.5v-109h-109q-8 0 -13.5 -5.5t-5.5 -13.5t5.5 -13.5t13.5 -5.5h109v-109q0 -8 5.5 -13.5t13.5 -5.5t13.5 5.5t5.5 13.5v109h109q8 0 13.5 5.5t5.5 13.5t-5.5 13.5t-13.5 5.5zM513.5 253q101.5 0 173.5 72
t72 173.5t-72 173.5t-173.5 72t-173.5 -72t-72 -173.5t72 -173.5t173.5 -72zM513.5 706q85.5 0 146.5 -61t61 -146.5t-61 -146.5t-146.5 -61t-146.5 61t-61 146.5t61 146.5t146.5 61zM516 214q67 0 130 -21q7 -3 14 0.5t9.5 11t-1 14.5t-10.5 10q-69 23 -142 23
q-120 0 -220 -62.5t-153 -169.5q-5 -10 -10 -29.5t-4 -32.5q2 -62 33.5 -97t87.5 -38h1q8 0 13.5 5t5.5 13q1 8 -4.5 14t-13.5 6q-82 5 -85 98q-1 21 10 44q48 97 139 154t200 57z" />
    <glyph glyph-name="uniE61B" unicode="&#xe61b;" 
d="M797 325h99v-56h-99v56zM519 61h56v-99h-56v99zM804 514l-70 -70l-39 40l70 70zM765 40l-70 70l39 39l70 -70zM389 147l131 132v266h85v-300q-157 -156 -157 -157zM570 757v-79q101 0 187.5 -50.5t136.5 -136.5t50 -187.5t-50 -187.5t-136.5 -136.5t-187.5 -50.5
q-141 0 -246.5 93.5t-124.5 230.5l57 -56l57 57l-156 156l-157 -156l57 -57l61 62q12 -114 74.5 -207.5t162 -147.5t215.5 -54q92 0 176 36t145 96.5t97 144.5t36 176.5t-36 176.5t-97 144.5t-145 96.5t-176 36z" />
    <glyph glyph-name="uniE61C" unicode="&#xe61c;" 
d="M512 74h-326q-1 3 -2.5 8t-1.5 20t5 29t20 32t39 31q3 1 7 3.5t14.5 12.5t18 22.5t13 35.5t4.5 50v192q0 3 0.5 8.5t5 20.5t12.5 28.5t25 28t40 23.5q48 18 109 13q-1 2 -2 5.5t-1.5 13t0.5 16.5t6 12.5t14 4.5v35q0 -1 -5 0t-13 -1.5t-15.5 -7t-13 -16t-5.5 -27.5
q-61 -3 -101 -24q-87 -44 -91 -133v-192q-1 -1 0 -8t-1.5 -19.5t-6 -25t-13 -25.5t-22.5 -21q-4 -2 -10.5 -5.5t-22.5 -17t-27.5 -29t-18 -40.5t-0.5 -53q1 -4 3 -10t11 -15.5t21 -9.5h331v35zM512 -48q36 0 61.5 20.5t25.5 48.5h-174q0 -28 25.5 -48.5t61.5 -20.5zM799 219
q-21 12 -31.5 36.5t-11.5 43.5v19v192q-4 89 -91 133q-18 9 -43 15t-41 7l-17 2q0 26 -13 39t-26 13h-13v-35q15 1 19 -12t1 -27l-3 -13q61 5 109 -13q23 -9 40 -23.5t25 -28.5t12.5 -27.5t5.5 -21.5v-8v-192q-1 -27 4 -50t13.5 -36t17.5 -22t15 -13l7 -3q24 -13 39.5 -30.5
t19.5 -32.5t5 -28.5t-2 -20.5l-2 -8h-326v-35h331q12 0 21 9t11.5 16.5t2.5 9.5q3 16 2.5 30.5t-4.5 27.5t-9.5 23.5t-13 19.5t-15 16t-14.5 12.5t-12.5 9t-9.5 5.5zM799 219zM301 666q0 -33 -23 -56t-56 -23t-56 23t-23 56t23 56t56 23t56 -23t23 -56z" />
    <glyph glyph-name="uniE61D" unicode="&#xe61d;" horiz-adv-x="1025" 
d="M382 226q-106 0 -181 75t-75 181t75 181t181 75t181 -75t75 -181t-75 -181t-181 -75zM381.5 714q-95.5 0 -163.5 -68t-68 -164t68 -163.5t163.5 -67.5t163.5 67.5t68 163.5t-68 164t-163.5 68zM646 226q-5 0 -9 3.5t-4 9t4 9t9 3.5q95 0 163 67.5t68 163.5t-68 164
t-163 68q-5 0 -9 3.5t-4 8.5t4 8.5t9 3.5q106 0 181 -75t75 -181t-75 -181t-181 -75zM749 -141q-5 0 -8.5 3.5t-3.5 8.5q0 97 -47.5 178.5t-129.5 129.5t-178.5 48t-178 -48t-129 -129.5t-47.5 -178.5q0 -5 -4 -8.5t-9 -3.5t-8.5 3.5t-3.5 8.5q0 78 30 148q29 68 81.5 120.5
t120.5 81.5q70 30 147.5 30t147.5 -30q69 -29 121.5 -81.5t81.5 -120.5q29 -70 29 -148q0 -5 -3.5 -8.5t-8.5 -3.5zM1012 -141q-5 0 -8.5 3.5t-3.5 8.5q0 97 -48 178.5t-129.5 129.5t-178.5 48q-5 0 -8.5 3.5t-3.5 8.5t3.5 8.5t8.5 3.5q78 0 148 -30q68 -29 120.5 -81.5
t81.5 -120.5q30 -70 30 -148q0 -5 -3.5 -8.5t-8.5 -3.5z" />
    <glyph glyph-name="uniE61E" unicode="&#xe61e;" 
d="M778 -2q66 55 104 132.5t38 165.5q0 85 -38 163l2 2q36 34 36 83t-36 83.5t-87 34.5q-44 0 -79 -28q-96 55 -206 55t-206 -55q-35 28 -79 28q-51 0 -87 -34.5t-36 -83.5t36 -83l2 -2q-38 -78 -38 -163q0 -88 38.5 -166t105.5 -134l-81 -78q-8 -8 -8 -19t8 -18.5t19 -7.5
t19 8l88 84q100 -62 219 -62q120 0 222 63l89 -85q8 -8 19 -8t19 7.5t8 18.5t-8 19zM845 591q18 -17 20 -40.5t-11 -42.5q-36 54 -88 94q19 10 41.5 6.5t37.5 -17.5zM179 591q15 15 37.5 18t41.5 -7q-52 -40 -88 -94q-13 19 -11 42.5t20 40.5zM512 -45q-96 0 -177.5 45.5
t-128.5 124t-47 171t47 171t128.5 124t177.5 45.5t177.5 -45.5t128.5 -124t47 -171t-47 -171t-128.5 -124t-177.5 -45.5zM648 322h-109v183q0 11 -8 19t-19 8t-19 -8t-8 -19v-209q0 -11 8 -18.5t19 -7.5h136q11 0 19 7.5t8 18.5t-8 18.5t-19 7.5z" />
    <glyph glyph-name="uniE61F" unicode="&#xe61f;" 
d="M487 243q50 22 80 68.5t30 102.5q0 78 -55 133.5t-133 55.5t-133.5 -55.5t-55.5 -133.5q0 -56 30.5 -102.5t80.5 -68.5q-107 -27 -176 -114t-69 -200h27q0 123 86.5 210t209.5 87t209.5 -87t86.5 -210h27q0 113 -69 200t-176 114zM247 414q0 67 47.5 114.5t114.5 47.5
t114.5 -47.5t47.5 -114.5t-47.5 -114t-114.5 -47t-114.5 47t-47.5 114zM692 333h242q6 0 10 4t4 10t-4 9.5t-10 3.5h-242q-6 0 -10 -3.5t-4 -9.5t4 -10t10 -4zM934 226h-188q-6 0 -10 -4t-4 -9.5t4 -9.5t10 -4h188q6 0 10 4t4 9.5t-4 9.5t-10 4zM934 91h-108q-5 0 -9 -4
t-4 -9.5t4 -9.5t9 -4h108q6 0 10 4t4 9.5t-4 9.5t-10 4z" />
    <glyph glyph-name="uniE620" unicode="&#xe620;" horiz-adv-x="1366" 
d="M528 333q-40 19 -82 29q-3 2 -6 2h-6q-3 0 -6 -2q-35 -19 -83.5 -19t-83.5 19q-3 2 -6 2h-5q-1 0 -3 -1q-114 -27 -202 -112q-4 -4 -4 -9v-45q0 -6 4 -9.5t9 -3.5h560q-62 61 -86 149zM201 565q0 -10 7 -17t17 -7q4 -51 39 -91t80.5 -40t80.5 40t39 91q10 0 17 7t7 17
q0 16 -14 23q7 23 7 47q0 60 -40 102.5t-96.5 42.5t-96.5 -42.5t-40 -102.5q0 -24 7 -47q-14 -6 -14 -23zM537 437q0 -17 11.5 -29.5t28.5 -12.5h1q4 -64 39 -120q13 -21 31 -40q59 -64 133 -64q80 0 142 72q6 8 12 17q45 62 51 135v0q17 0 28.5 12.5t11.5 29.5q0 28 -24 39
q13 39 13 80q0 102 -68.5 175t-165 73t-165 -73t-68.5 -175q0 -41 13 -80q-24 -11 -24 -39zM956 101q-5 3 -11 3h-11q-6 0 -10 -3q-60 -31 -142.5 -31t-142.5 31q-4 3 -10 3h-8q-3 0 -5 -1q-197 -46 -346 -191q-6 -6 -6 -15v-78q0 -9 6 -15.5t15 -6.5h993q9 0 15 6.5t6 15.5
v78q0 9 -6 15q-146 142 -337 189z" />
    <glyph glyph-name="uniE621" unicode="&#xe621;" 
d="M200 -100q-10 0 -17 7.5t-7 18.5v68q0 102 54 186t145 123l13 5l-11 10q-34 28 -53 68.5t-19 85.5q0 81 54.5 138.5t131.5 57.5t131.5 -57.5t54.5 -138.5q0 -45 -18.5 -85.5t-52.5 -68.5l-12 -10l14 -5q90 -39 144 -123t54 -186v-68q0 -11 -7 -18.5t-17 -7.5h-582z
M491 299q-55 0 -107.5 -22t-93 -60.5t-65 -97t-23.5 -125.5v-66h578v66q-1 89 -42.5 160t-106.5 108t-140 37zM491 644q-67 0 -115 -50.5t-48 -121.5t48 -121.5t115 -50.5t115 50.5t48 121.5t-48 121.5t-115 50.5zM71 3q-10 0 -17 7.5t-7 17.5v53q0 74 36 137t98 97l10 6
l-7 8q-40 47 -40 109q0 64 42.5 111t102.5 50q-9 -15 -14 -35q-50 -7 -77.5 -43t-27.5 -85q0 -44 12.5 -65t40.5 -37q9 -8 10 -18q0 -10 -7 -13l-11 -4q-65 -17 -103.5 -79t-38.5 -139v-48l52 1q-3 -17 -5 -31h-49zM862 3q-2 19 -5 27h52v51q-2 81 -40 143t-105 78l-6 2
q-6 3 -6 12q0 7 2.5 9.5t12.5 6.5q25 28 35 50.5t10 55.5q-8 63 -30.5 88t-71.5 39q-2 5 -2.5 7t-1.5 5.5t-1.5 4t-2 3t-2 3.5t-3.5 5t-5 6q61 -3 103.5 -50t42.5 -111q0 -62 -40 -109l-7 -8l10 -6q62 -34 98 -97t36 -137v-53q0 -10 -7 -17.5t-17 -7.5h-49zM862 3z" />
    <glyph glyph-name="uniE622" unicode="&#xe622;" 
d="M369 636h451v-51h-451v51v0zM369 435h451v-52h-451v52v0zM369 233h219v-51h-219v51v0zM190 649h79v-77h-79v77v0zM190 447h79v-77h-79v77v0zM190 246h79v-77h-79v77v0zM522 -5h-392q-16 0 -16 22v741q0 23 16 23h761q17 0 17 -23v-429v0q0 -10 7.5 -17.5t18 -7.5t18 7.5
t7.5 17.5v0v477q0 10 -7.5 17.5t-18.5 7.5h-844q-11 0 -19 -7.5t-8 -17.5v-837q0 -10 8 -17.5t19 -7.5h433q10 0 18 7.5t8 18t-8 18t-18 7.5v0zM996 183q8 8 8 18q0 11 -8 18.5t-19 7.5q-10 0 -18 -8v0h-1l-189 -185l-76 74q-7 8 -18 8t-18.5 -7.5t-7.5 -18t7 -18.5l76 -74
v-1l37 -36v1l1 -1l37 36v1l189 185v0zM996 183z" />
    <glyph glyph-name="uniE623" unicode="&#xe623;" 
d="M200 6q-10 0 -17 7.5t-7 17.5v68q0 103 54 187t145 122l13 6l-11 9q-34 28 -53 68.5t-19 85.5q0 81 54.5 138.5t131.5 57.5t131.5 -57.5t54.5 -138.5q0 -45 -18.5 -85.5t-52.5 -68.5l-12 -9l14 -6q90 -38 144 -122t54 -187v-68q0 -10 -7 -17.5t-17 -7.5h-582zM491 404
q-55 0 -107.5 -22t-93 -60.5t-65 -96.5t-23.5 -126v-66h578v66q-1 89 -42.5 160t-106.5 108t-140 37zM491 749q-67 0 -115 -50.5t-48 -121.5t48 -121t115 -50t115 50t48 121t-48 121.5t-115 50.5zM71 108q-10 0 -17 7.5t-7 17.5v53q0 75 36 138t98 97l10 5l-7 9
q-40 46 -40 108q0 64 42.5 111.5t102.5 50.5q-9 -16 -14 -36q-50 -6 -77.5 -42t-27.5 -86q0 -44 12.5 -65t40.5 -36q9 -8 10 -18q0 -10 -7 -14l-11 -3q-65 -18 -103.5 -80t-38.5 -138v-48h52q-3 -16 -5 -31h-49zM862 108q-2 19 -5 28h52v50q-2 82 -40 144t-105 77l-6 2
q-6 3 -6 13q0 7 2.5 9t12.5 6q25 28 35 50.5t10 55.5q-8 63 -30.5 88t-71.5 39l-2 8q-1 1 -2 4.5t-1.5 4t-2 3.5t-2 3.5t-3.5 4.5t-5 7q61 -3 103.5 -50.5t42.5 -111.5q0 -62 -40 -108l-7 -9l10 -5q62 -34 98 -97t36 -138v-53q0 -10 -7 -17.5t-17 -7.5h-49zM862 108z" />
    <glyph glyph-name="uniE624" unicode="&#xe624;" horiz-adv-x="1026" 
d="M876 723q-10 20 -20.5 31t-22 12.5t-22 -1t-24.5 -13t-24 -19t-26.5 -23.5t-26.5 -24q32 -60 53 -108.5t39 -111t15.5 -124.5t-26.5 -119q-46 -110 -172 -195q-120 -81 -317 -142q728 87 724 441q-2 120 -98 299q-48 88 -52 97zM620 798l-2 3q-20 27 -49.5 17t-39.5 -46
q-14 -50 -60 -84q74 -149 77 -283q6 -290 -310 -512q125 34 221.5 77t159.5 85t101 96t57 97t16.5 102.5t-10 99t-33.5 100t-42 91t-47 86.5q-28 49 -39 71zM503 532zM256 -62q2 2 6 5l-3 -2q4 2 5 3h-1q233 180 256 402v1v0q1 12 2 23v1v1v7v2q1 4 1 6v3v5v5v4q0 2 -1 5v2
v1v7v1q-2 39 -10 79l-1 4v1v1q-1 4 -2 7q-2 10 -5 20v1q-1 5 -3 9q-19 71 -58 146q-20 38 -50 87.5t-34 57.5q-17 28 -36.5 44t-35.5 18t-29 -4.5t-20 -24t-5 -40.5q3 -38 -20 -76.5t-57.5 -65t-70 -48t-59 -32t-25.5 -10.5l155 -722l6 1q31 20 60 40q2 1 7 5q11 7 21 15
q3 3 7 5zM249 -67q-1 0 -1 -1v0q0 1 1 1z" />
    <glyph glyph-name="uniE625" unicode="&#xe625;" 
d="M634 749q22 -5 37 -24t17 -48q0 -8 0.5 -27t0.5 -39.5t-1 -37t-5 -20.5q-6 -7 -11.5 -6.5t-5.5 -4.5q0 -3 -1.5 -20.5t-8.5 -49.5q-4 -16 -11 -29.5t-15 -23.5q-10 -12 -20 -22q-1 -13 -1 -24v-21q0 -10 1 -16q1 -12 6 -17t20 -9q5 -2 17.5 -5.5t30 -10t36.5 -13.5
q18 -6 37 -13q17 -6 31 -12q14 -5 21 -8q19 -10 25.5 -20.5t11.5 -27.5q2 -9 5 -32t7 -49q4 -25 6.5 -47.5t3.5 -28.5q1 -13 -4.5 -21.5t-24.5 -13.5q-17 -4 -48.5 -8.5t-73.5 -8.5t-92.5 -6.5t-106 -2.5t-106 2t-93 5.5t-75.5 8t-51 9.5q-4 1 -10 4t-11.5 7t-8.5 10.5
t-2 14.5q1 7 5.5 31t10.5 51q6 26 11 51q5 24 7 30q4 12 11 24.5t25 26.5q9 6 32 14t48.5 15t48 11.5t29.5 6.5q15 3 26 7.5t11 12.5v57q-11 8 -21 19q-8 9 -17 21t-16 26q-13 26 -17 48t-5 26t-7.5 6.5t-9.5 10.5q-8 16 -7.5 34.5t2.5 53.5q3 34 11.5 65t36.5 58
q15 12 39.5 20.5t49.5 12.5t48 4t35 -3q13 -4 20.5 -8.5t12 -8.5t7.5 -7.5t6 -5.5q5 -4 12.5 -2.5t27.5 -1.5zM544 214l26 -102l43 115l-41 30zM474 259l-39 -32l44 -115l23 103zM821 640q14 -2 22 -13.5t9 -28.5q0 -5 1 -16t1 -23t-1 -22t-3 -12q-3 -4 -6.5 -3.5t-3.5 -3.5
q0 -2 -0.5 -12t-5.5 -30q-2 -10 -6 -17.5t-9 -13.5q-5 -7 -11 -13q-1 -7 -1 -14v-23q1 -7 3.5 -9.5t11.5 -4.5q4 -1 18.5 -6t31.5 -11t32 -12t21 -9q11 -5 15.5 -11.5t6.5 -17.5q1 -5 3 -18q2 -14 4 -29.5t4 -28.5t2 -16q1 -8 -2.5 -13.5t-15.5 -7.5l-25 -5q-16 -3 -41 -5
q-2 12 -6 23q-3 9 -7 20t-10 19q-10 14 -22 23t-23.5 15t-23.5 9t-23 7q-50 18 -80.5 25t-33.5 11q-2 3 -2.5 7t-0.5 9t1 11q13 4 20 5t11 2q8 2 14.5 4.5t6.5 6.5v35l-2 1l-4 1q-2 1 -3 5q5 13 11 31q5 15 10.5 37.5t9.5 53.5q3 25 4 44.5t1 33.5v31q11 2 24.5 2t20.5 -2
q17 -5 20.5 -10t7.5 -8q4 -2 8.5 -1.5t15.5 -1.5zM771 328l7 -26l18 -6l14 35l-21 17zM721 345l-17 -16l1 -4l30 -9l4 11zM287 662q-15 2 -31 1q-14 -1 -30 -5t-29 -14q-12 -8 -19 -18.5t-10.5 -22t-4.5 -21t-1 -15.5q-1 -12 -2 -23q0 -10 1.5 -18t2.5 -11t4 -5t5 -2.5
t4 -12.5q1 -13 6.5 -25t11.5 -20q3 -5 7 -9.5t8 -9.5t10 -9v-12v-17q-1 -6 -4.5 -9.5t-13.5 -5.5l-16 -4q-16 -5 -24 -7q-13 -3 -26.5 -7t-20.5 -7q-29 -13 -35 -47q-3 -15 -8 -39q-5 -23 -7 -33t0.5 -20.5t15.5 -13.5q7 -2 17.5 -3t20.5 -3t22 -3q2 12 6 24q3 10 8 21
t13 21q8 8 19 17l22 16q12 9 26 16l-10 25l21 16l23 -25l12 3q1 0 5 2q2 1 4 1l19 21l16 -13q5 1 9 2t9 2l10 2q10 1 17.5 3t8.5 10q0 4 0.5 6.5t0.5 4.5v3q-9 3 -17 6l-13 4q-7 2 -11 4q-8 2 -9 7.5t-1 14.5v10q0 5 1 10q0 4 1 11q-8 12 -15 26q-7 11 -13.5 26.5
t-10.5 31.5q-5 23 -7 48t-1 46q0 24 3 48zM287 662z" />
    <glyph glyph-name="uniE626" unicode="&#xe626;" 
d="M920 152l-25 25l-233 233l217 216q25 25 37.5 47t15 36t-4.5 29.5t-12 21t-16 16.5q-12 12 -22.5 18.5t-29 10.5t-42.5 -9t-51 -43l-218 -217l-197 197l-23 23l-73 73l-176 -175l87 -88l10 -9l196 -197l-224 -223q-2 -2 -4 -6v1l-1 -3q-3 -5 -3 -10l-39 -136q2 -11 4 -13
l13 -3l137 35q5 0 10 2l2 1q4 2 7 5l224 224l294 -293v0l176 175zM128 652l117 116l23 -22l-37 -37q-6 -5 5 -16l8 -9q11 -10 16 -4l37 36l50 -50l-66 -66q-7 -7 3 -18l9 -8q10 -11 18 -3l65 66l51 -50l-43 -43q-5 -5 5 -15l9 -9q10 -10 16 -5l42 42l51 -51l-117 -116z
M243 40q-8 -6 -13.5 -3t-24.5 23l-19 19q-19 19 -22 24.5t3 13.5l611 612q8 6 13.5 2.5t24.5 -22.5l19 -19q19 -20 22 -25t-3 -13zM778 2l-262 262l117 116l54 -54l-71 -71q-8 -8 2 -18l9 -9q10 -10 18 -2l72 71l50 -51l-39 -38q-5 -5 5 -16l9 -8q10 -11 16 -5l38 38l47 -47
l-74 -73q-7 -8 3 -18l9 -9q10 -10 18 -2l73 73l23 -23z" />
    <glyph glyph-name="uniE627" unicode="&#xe627;" 
d="M512 -64q-91 0 -174 35.5t-143 95.5t-95.5 143t-35.5 174t35.5 174t95.5 143t143 95.5t174 35.5t174 -35.5t143 -95.5t95.5 -143t35.5 -174t-35.5 -174t-95.5 -143t-143 -95.5t-174 -35.5zM150 401h-34q-7 0 -12 -5t-5 -12t5 -12t12 -5h34q8 0 13 5t5 12t-5 12t-13 5z
M495 -13q0 -7 5 -12t12 -5t12 5t5 12v35q0 7 -5 12t-12 5t-12 -5t-5 -12v-35zM529 780q0 7 -5 12t-12 5t-12 -5t-5 -12v-34q0 -8 5 -13t12 -5t12 5t5 13v34zM529 369v239q0 7 -5 12t-12 5t-12 -5t-5 -12v-234l-254 -253q-5 -5 -5 -12.5t5 -12.5t12.5 -5t12.5 5l259 258
q6 6 4 15zM909 401h-35q-7 0 -12 -5t-5 -12t5 -12t12 -5h35q7 0 12 5t5 12t-5 12t-12 5z" />
    <glyph glyph-name="uniE628" unicode="&#xe628;" 
d="M899 163l-23 24l-221 220l205 205q23 23 35 44.5t14.5 34.5t-4 27.5t-11 20t-15.5 15.5q-11 11 -21 17.5t-27.5 10t-40.5 -9t-49 -40.5l-205 -205l-187 186l-22 22l-69 70l-167 -167l83 -82l9 -9l186 -186l-212 -212q-2 -2 -4 -5h-1l-1 -3q-2 -4 -2 -9l-37 -129
q1 -10 4 -12l12 -3l130 33q5 0 9 2l3 1h-1q4 2 6 5l213 212l278 -278v1l1 -1l166 166zM149 636l111 111l21 -22l-35 -34q-5 -6 5 -15l8 -9q10 -9 15 -4l35 35l47 -48l-62 -62q-7 -8 3 -17l8 -9q10 -9 17 -2l62 62l48 -47l-40 -40q-5 -5 4 -15l9 -8q9 -10 14 -5l41 40l48 -48
l-111 -111zM258 57q-8 -5 -13 -2t-23 21l-18 18q-18 18 -21 23.5t3 12.5l578 579q8 6 13 3t23 -21l18 -18q19 -19 21.5 -24t-2.5 -13zM764 21l-248 248l111 110l51 -51l-67 -67q-7 -8 2 -17l9 -9q9 -9 17 -2l67 67l48 -47l-37 -37q-5 -5 5 -15l8 -8q10 -10 15 -4l36 36
l45 -44l-70 -70q-7 -7 2 -17l9 -8q10 -10 17 -2l69 69l22 -22z" />
    <glyph glyph-name="uniE629" unicode="&#xe629;" 
d="M200 6q-10 0 -17 7.5t-7 17.5v68q0 103 54 187t145 122l13 6l-11 9q-34 28 -53 68.5t-19 85.5q0 81 54.5 138.5t131.5 57.5t131.5 -57.5t54.5 -138.5q0 -45 -18.5 -85.5t-52.5 -68.5l-12 -9l14 -6q90 -38 144 -122t54 -187v-68q0 -10 -7 -17.5t-17 -7.5h-582zM491 404
q-55 0 -107.5 -22t-93 -60.5t-65 -96.5t-23.5 -126v-66h578v66q-1 89 -42.5 160t-106.5 108t-140 37zM491 749q-67 0 -115 -50.5t-48 -121.5t48 -121t115 -50t115 50t48 121t-48 121.5t-115 50.5zM71 108q-10 0 -17 7.5t-7 17.5v53q0 75 36 138t98 97l10 5l-7 9
q-40 46 -40 108q0 64 42.5 111.5t102.5 50.5q-9 -16 -14 -36q-50 -6 -77.5 -42t-27.5 -86q0 -44 12.5 -65t40.5 -36q9 -8 10 -18q0 -10 -7 -14l-11 -3q-65 -18 -103.5 -80t-38.5 -138v-48h52q-3 -16 -5 -31h-49zM862 108q-2 19 -5 28h52v50q-2 82 -40 144t-105 77l-6 2
q-6 3 -6 13q0 7 2.5 9t12.5 6q25 28 35 50.5t10 55.5q-8 63 -30.5 88t-71.5 39l-2 8q-1 1 -2 4.5t-1.5 4t-2 3.5t-2 3.5t-3.5 4.5t-5 7q61 -3 103.5 -50.5t42.5 -111.5q0 -62 -40 -108l-7 -9l10 -5q62 -34 98 -97t36 -138v-53q0 -10 -7 -17.5t-17 -7.5h-49zM862 108z" />
    <glyph glyph-name="uniE62A" unicode="&#xe62a;" 
d="M580 339q-33 28 -56.5 41.5t-29.5 12.5l-6 -1q-51 -28 -106 -28q-59 0 -113 32q-101 -47 -169.5 -167t-79.5 -275l725 -2q-8 117 -57 227t-108 160zM382 1l-53 56l48 254l-27 38q6 7 32.5 7t32.5 -7l-27 -38l48 -254zM270 410q53 -32 113 -32q54 0 105 28q52 28 83 79
t31 112q0 91 -64.5 155t-155 64t-155 -64t-64.5 -155q0 -58 29 -108t78 -79zM892 214q-22 19 -38 28t-20 8h-4q-35 -19 -72 -19q-40 0 -76 22q-69 -33 -115 -114t-54 -186l491 -1q-6 79 -39 153.5t-73 108.5zM758 -15l-36 38l33 172l-19 25q4 5 22 5.5t22 -5.5l-18 -25
l33 -172zM682 262q36 -22 76 -22q37 0 72 19t56 53.5t21 76.5q0 61 -43.5 104.5t-105 43.5t-105 -43.5t-43.5 -104.5q0 -40 19.5 -73.5t52.5 -53.5z" />
    <glyph glyph-name="uniE62B" unicode="&#xe62b;" 
d="M711 37h-1h1zM718 71l-212 109q50 40 77 108t27 123v131q-12 74 -72 121.5t-150 42.5q-83 -5 -132.5 -52t-65.5 -121v-124q0 -49 32 -119t82 -110l-236 -129q-3 -2 -7.5 -4t-13.5 -10.5t-11 -17.5v-79q0 -21 5.5 -26.5t26.5 -5.5h671q21 0 23 3.5t2 26.5v74
q0 14 -11.5 28.5t-22.5 22.5zM735 -62h-669l-1 48q0 38 3 39l3 1l1 1l200 98q1 1 7 4l8 4q2 1 8 4.5t9 5.5t7.5 5.5t7 6t5.5 6t4.5 7t1.5 6.5q2 14 -11.5 31t-29.5 30q-64 52 -75 174v124q0 17 15.5 42t38.5 49t56 41t64 17q43 0 90.5 -21.5t77.5 -51t30 -51.5v-149
q0 -45 -19 -100.5t-55 -83.5q-28 -22 -25 -51q1 -8 16.5 -20.5t23.5 -17.5l183 -99h1q13 -5 18 -16.5t5 -22t1 -11.5v-49v0zM956 205l-229 128q51 40 81.5 106.5t30.5 118.5v124q0 67 -59.5 121.5t-143.5 55.5q-133 3 -203 -78q12 -1 25 0t29 0q25 19 70.5 34t78.5 15
q32 0 64.5 -16.5t56 -40.5t38.5 -49t15 -42v-124q0 -44 -19 -94.5t-56 -79.5q-41 -33 -39 -56t39 -43q176 -98 223 -124v-50h-173q6 -2 19 -5t19 -7.5t11 -16.5h124q22 0 26 4t4 25v42q0 13 -8 26t-16 20z" />
    <glyph glyph-name="uniE62C" unicode="&#xe62c;" 
d="M828 700q-63 63 -145 97t-171 34t-171 -34t-145 -97t-97 -145t-34 -171t34 -171t97 -145t145 -97t171 -34t171 34t145 97t97 145t34 171t-34 171t-97 145zM532 -21v74q0 8 -6 14t-14.5 6t-14.5 -6t-6 -14v-74q-103 5 -189 57.5t-138 139t-57 188.5h72q9 0 15 6t6 14.5
t-6 14.5t-15 6h-72q8 155 118.5 265.5t265.5 118.5v-72q0 -9 6 -15t14.5 -6t14.5 6t6 15v72q102 -5 188.5 -57t139 -138t57.5 -189h-74q-8 0 -14 -6t-6 -14.5t6 -14.5t14 -6h74q-5 -102 -57 -189t-139 -139t-189 -57zM532 393v245q0 8 -6 14t-14.5 6t-14.5 -6t-6 -14v-255
q0 -12 11 -18l191 -191q6 -6 14.5 -6t14.5 6t6 14.5t-6 14.5z" />
    <glyph glyph-name="uniE62D" unicode="&#xe62d;" 
d="M940 828q-42 41 -100.5 41t-99.5 -41l-23 -23l-53 52q-5 6 -13 6t-14 -6l-290 -290q-6 -6 -6 -14t5.5 -13.5t14 -5.5t13.5 6l277 276l38 -39l-558 -557q-30 -31 -38.5 -73.5t8.5 -81.5l-51 -50q-16 -16 -16 -38.5t16 -38.5t38.5 -16t38.5 16l50 51q26 -11 55 -11
q58 0 100 41l608 609q41 41 41 99.5t-41 100.5zM610 643l42 43l146 -146l-43 -42zM728 471l-376 -376l-145 145l376 376zM232 17q-27 0 -50 12l-12 7l-71 -71q-4 -4 -10.5 -4t-11 4.5t-4.5 11t4 10.5l71 71l-7 12q-16 30 -11 64t29 58l20 21l146 -146l-21 -20
q-30 -30 -72 -30v0zM825 568l-145 145l87 87q30 31 72.5 31t72.5 -30.5t30 -73t-30 -72.5zM495 -63h-132q-8 0 -13.5 -5.5t-5.5 -13.5t5.5 -14t13.5 -6h132q8 0 13.5 6t5.5 14t-5.5 13.5t-13.5 5.5zM921 -63h-323q-8 0 -14 -5.5t-6 -13.5t6 -14t14 -6h323q8 0 13.5 6t5.5 14
t-5.5 13.5t-13.5 5.5zM921 -63z" />
    <glyph glyph-name="uniE62E" unicode="&#xe62e;" 
d="M465 695h279v-41h-279v41zM465 541h279v-40h-279v40zM199 82h545v-41h-545v41zM199 235h545v-41h-545v41zM199 388h545v-41h-545v41zM290 589h-189l246 243v-185q0 -14 -7 -27q-15 -28 -49 -31h-1zM201 630h87q11 1 15 8q3 5 3 10v86zM765 -62h-593l-2 1q-46 12 -64 49
q-8 18 -8 35v547h211q33 0 48 24q8 10 10 23v215h399h2q34 -7 49 -31.5t16 -47.5v-1v-736v-1q-3 -18 -10.5 -32.5t-16 -22.5t-18.5 -13.5t-14 -6.5t-7 -2h-2zM178 -21h583q26 8 31 40v733q-2 32 -30 39h-354v-178v-1q-3 -21 -17 -41q-28 -41 -82 -41h-170v-508q0 -5 1.5 -11
t11 -16.5t26.5 -15.5z" />
    <glyph glyph-name="uniE62F" unicode="&#xe62f;" 
d="M828 700q-63 63 -145 97t-171 34t-171 -34t-145 -97t-97 -145t-34 -171t34 -171t97 -145t145 -97t171 -34t171 34t145 97t97 145t34 171t-34 171t-97 145zM532 -21v74q0 8 -6 14t-14.5 6t-14.5 -6t-6 -14v-74q-103 5 -189 57.5t-138 139t-57 188.5h72q9 0 15 6t6 14.5
t-6 14.5t-15 6h-72q8 155 118.5 265.5t265.5 118.5v-72q0 -9 6 -15t14.5 -6t14.5 6t6 15v72q102 -5 188.5 -57t139 -138t57.5 -189h-74q-8 0 -14 -6t-6 -14.5t6 -14.5t14 -6h74q-5 -102 -57 -189t-139 -139t-189 -57zM532 393v245q0 8 -6 14t-14.5 6t-14.5 -6t-6 -14v-255
q0 -12 11 -18l191 -191q6 -6 14.5 -6t14.5 6t6 14.5t-6 14.5z" />
    <glyph glyph-name="uniE630" unicode="&#xe630;" 
d="M778 58q-3 104 -61 189.5t-151 126.5q-4 2 -11 5q49 34 77.5 88t28.5 117q0 103 -70 175t-169 72t-168.5 -72t-69.5 -175q0 -63 28.5 -117t76.5 -88q-98 -39 -160 -127t-64 -197q-1 -2 -1 -4v-36q0 -12 8.5 -20.5t21 -8.5t21 8.5t8.5 20.5v36v6q3 121 90 205.5t208 84.5
q122 0 209 -85t90 -207v-4v-18v-5v-13q0 -12 8.5 -20.5t21 -8.5t21 8.5t8.5 20.5v36q0 3 -1 7zM241 584.5q0 77.5 53 133t128.5 55.5t128.5 -55.5t53 -133t-53 -133t-128.5 -55.5t-128.5 55.5t-53 133zM960 118q-3 108 -74 189q-46 52 -110 80q39 28 62 72t23 95
q0 61 -31 110.5t-82 74.5l-9 5q-10 4 -20 7l-10 4q-12 4 -23 -1.5t-15.5 -17.5t0.5 -23.5t17 -15.5l17 -6v-1q42 -13 69 -50.5t27 -85.5q0 -47 -27 -84t-69 -51h-19q-14 0 -24.5 -10.5t-10.5 -25t10.5 -25t24.5 -10.5h19q83 -16 139 -81.5t58 -150.5v-4v-15v-4l-1 -5h1v-6
q0 -12 8.5 -20.5t20.5 -8.5t20.5 8.5t8.5 20.5v30v6z" />
    <glyph glyph-name="uniE631" unicode="&#xe631;" 
d="M858 13h-692q-12 0 -12 13v89q0 14 14.5 28t29.5 22l205 103q7 5 7 11q0 10 -8 18q-24 10 -47.5 47.5t-33.5 61.5v1q-12 40 -12 93t4 78t8 40q4 28 24.5 52t45.5 38.5t53.5 26t43.5 15.5t21 5h6q6 -1 21 -5t43.5 -15.5t53.5 -26t46 -39t25 -52.5q4 -16 8 -40.5t4.5 -77.5
t-12.5 -93v-2q-48 -95 -81 -108q-7 -12 -7 -18.5t6 -11.5l204 -102q46 -25 46 -50v-90q-3 -11 -14 -11zM179 38h666v77q-3 10 -32 27l-204 102l-1 1l-1 1q-18 13 -18 30q-2 22 16 40q1 1 3 2t3 2q13 3 32.5 32.5t34.5 62.5q5 13 7.5 28.5t3.5 30t1 29.5t-0.5 28.5t-2 25.5
t-3 22t-3 17t-2.5 12l-1 4v1q-3 27 -25.5 49.5t-55 36.5t-50.5 20t-35 11q-17 -5 -35 -11t-50.5 -20t-55 -36.5t-25.5 -49.5v-1l-1 -4q-1 -5 -2.5 -12t-3 -17t-3 -22t-2 -25.5t-0.5 -28.5t1 -29.5t3.5 -30t7.5 -28.5q14 -32 34 -61.5t33 -33.5q4 0 6 -4q17 -18 16 -40
q0 -17 -18 -30l-1 -1l-1 -1l-205 -102q-31 -19 -31 -27v-77z" />
    <glyph glyph-name="uniE632" unicode="&#xe632;" 
d="M511 813l-204 -204v82h-163v-245l-144 -144l29 -29l482 482l482 -482l29 29zM185 650h81v-82l-81 -81v163zM144 282v-489h285v285h164v-285h285v489l-367 368zM837 -166h-204v244v41h-40h-164h-40v-41v-244h-204v432l326 326l326 -326v-432z" />
    <glyph glyph-name="uniE633" unicode="&#xe633;" 
d="M992 -209h-357v258q0 13 -9 22t-22 9h-184q-13 0 -22 -9t-9 -22v-258h-357v528l475 494l485 -494v-528zM677 -166h273v468l-443 450l-433 -450v-468h273v215q0 30 21.5 51.5t51.5 21.5h184q30 0 51.5 -21.5t21.5 -51.5v-215z" />
    <glyph glyph-name="uniE634" unicode="&#xe634;" 
d="M961 268v35h-1l-422 422v1l-25 25v-1v1l-25 -25v-1l-423 -422h1h-1v-35h107v-413v-1h682v1v341h-1v0q0 7 -5 12.5t-12.5 5.5t-12.5 -5.5t-5 -12.5v0v-306h-180v234h-250v-234h-180v413v0h-93l398 398l398 -398h-75q-8 0 -13 -5t-5 -12.5t5 -12.5t13 -5v0h125zM423 88h180
v-198h-180v198z" />
    <glyph glyph-name="uniE635" unicode="&#xe635;" 
d="M956 290q-4 -4 -11 -4h-105v-418q0 -7 -4.5 -11t-10.5 -4h-209q-6 0 -10.5 4t-4.5 11v298h-180v-298q0 -7 -4 -11t-11 -4h-209q-6 0 -10.5 4t-4.5 11v418h-105q-6 0 -10 4q-10 11 0 22l434 432q10 11 21 0l434 -432q9 -10 0 -22zM511 713l-397 -397h83q3 0 6 -2
q9 -3 9 -13v-419h180v299q0 6 4 10.5t10 4.5h210q6 0 10.5 -4.5t4.5 -10.5v-299h179v419q0 10 9 13q3 2 6 2v1h83z" />
    <glyph glyph-name="uniE636" unicode="&#xe636;" 
d="M891 -176h-239q-8 0 -14 6t-6 14v320h-240v-320q0 -8 -5.5 -14t-14.5 -6h-239q-8 0 -14 6t-6 14v519q0 9 6 14.5t14 5.5t14 -5.5t6 -14.5v-499h200v320q0 8 5.5 14t13.5 6h280q8 0 14 -6t6 -14v-320h200v499q0 9 5.5 14.5t14 5.5t14 -5.5t5.5 -14.5v-519q0 -8 -5.5 -14
t-14.5 -6zM989 245q-8 0 -14 6l-463 482l-462 -482q-6 -6 -14.5 -6t-14 5.5t-6 14t5.5 14.5l477 496q5 6 14 6t15 -6l476 -496q6 -6 6 -14.5t-6 -14t-14 -5.5z" />
    <glyph glyph-name="uniE637" unicode="&#xe637;" horiz-adv-x="1062" 
d="M389 222q-46 0 -74 57q-27 -52 -73 -52q-47 0 -73 54q-31 -57 -75 -57q-36 0 -63 33q-23 27 -18 49l113 442q5 20 26 38t57 18h657q37 0 59.5 -22.5t29.5 -46.5l100 -430v-1q-2 -32 -24 -55.5t-50 -23.5q-41 0 -66 53q-13 -25 -34 -40t-45 -15q-48 0 -74 56
q-13 -26 -34.5 -41t-45.5 -15q-21 0 -40.5 12.5t-31.5 39.5q-11 -24 -31.5 -38t-42.5 -14q-45 0 -73 56q-26 -57 -74 -57zM314 335l9 -27q11 -32 28.5 -49.5t37.5 -17.5q21 0 38.5 18t25.5 48l9 28l9 -27q24 -66 65 -66q22 0 41 19t24 45l9 46l10 -45q6 -30 23 -47.5
t39 -17.5q23 0 42.5 18t28.5 47l10 30l9 -30q9 -31 26 -48t38 -17q23 0 42 18t27 47l8 30l10 -29q22 -64 58 -64q20 0 36.5 18t18.5 42l-99 426q-1 3 -2.5 7t-7.5 13t-13 16t-20 13t-28 6h-657q-15 0 -27 -4.5t-18.5 -10t-11.5 -13t-6 -10t-2 -4.5l-113 -441q-2 -13 14 -33
q22 -26 49 -26q40 0 67 65l11 24l7 -25q9 -28 26 -44.5t37.5 -16.5t37 16.5t25.5 44.5zM856 -189h-659q-40 0 -62 25q-26 28 -23 70v341h19v-341q-2 -36 18 -58q17 -18 48 -18h659q50 0 70 32q10 16 10 33v352h19v-352q0 -33 -24 -57q-26 -27 -75 -27zM741 -54h-415
q-44 0 -75 31.5t-31 75.5t31 75t75 31h415q44 0 75 -31t31 -75t-31 -75.5t-75 -31.5zM326 140q-36 0 -61.5 -25.5t-25.5 -61.5t25.5 -62t61.5 -26h415q36 0 61.5 26t25.5 62t-25.5 61.5t-61.5 25.5h-415z" />
    <glyph glyph-name="uniE638" unicode="&#xe638;" 
d="M266 -114h104v68h-86v18h86v53h-95v18h209v-18h-94v-53h86v-18h-86v-68h105v-17h-229v17zM361 78l18 9q14 -22 20 -34l-18 -9q-13 23 -20 34zM504 -129q60 13 82 32q26 21 26 65v27h19v-28q0 -23 -6 -42q59 -25 108 -53l-12 -17q-45 27 -103 55q-8 -15 -21 -25
q-28 -20 -81 -33q-4 8 -12 19zM535 25h67q3 12 7 31h-101v18h225v-18h-104q-4 -18 -9 -31h89v-112h-19v95h-136v-96h-19v113zM814 509l-81 63v1h-1l-226 175l-299 -239l18 -23l282 224l196 -153v-351h-393v267h-30v-278q0 -8 5.5 -13.5t12.5 -5.5h417q7 0 12.5 5.5t5.5 13.5
v339l63 -49z" />
    <glyph glyph-name="uniE639" unicode="&#xe639;" horiz-adv-x="1026" 
d="M895 -213h-760v521h34v-487h692v487h34v-521zM40 267l-25 24l500 494l500 -494l-25 -24l-475 469zM669 -196h-34v378q0 17 -12.5 29.5t-29.5 12.5h-156q-17 0 -29.5 -12.5t-12.5 -29.5v-378h-34v378q0 31 22.5 53.5t53.5 22.5h156q31 0 53.5 -22.5t22.5 -53.5v-378z" />
    <glyph glyph-name="uniE63A" unicode="&#xe63a;" 
d="M65 290l24 -23l408 394l430 -403l27 29l-239 226v131h-51v-73l-167 157zM510 467q133 0 229.5 -88.5t102.5 -212.5v-302h-36v302q-7 111 -93 188.5t-203.5 77.5t-203.5 -77.5t-93 -188.5v-302h-36v302q7 124 103.5 212.5t229.5 88.5zM510 93q11 0 19 -7t8 -16v-206h-55
v206q0 9 8.5 16t19.5 7z" />
    <glyph glyph-name="uniE63B" unicode="&#xe63b;" 
d="M427 43v256h170v-256h214v341h128l-427 384l-427 -384h128v-341h214z" />
    <glyph glyph-name="uniE63C" unicode="&#xe63c;" 
d="M512 895q-104 0 -198.5 -40.5t-163 -109t-109 -163t-40.5 -198.5t40.5 -198.5t109 -163t163 -109t198.5 -40.5t198.5 40.5t163 109t109 163t40.5 198.5t-40.5 198.5t-109 163t-163 109t-198.5 40.5zM512 -103q-99 0 -189 38.5t-155.5 104t-104 155.5t-38.5 189t38.5 189
t104 155.5t155.5 104t189 38.5t189 -38.5t155.5 -104t104 -155.5t38.5 -189t-38.5 -189t-104 -155.5t-155.5 -104t-189 -38.5zM670 353q0 10 6.5 17t15.5 7t15.5 -7t6.5 -17v-229q0 -10 -6.5 -17t-15.5 -7h-360q-9 0 -15.5 7t-6.5 17v229q0 10 6.5 17t15.5 7t15.5 -7
t6.5 -17v-206h70v232q0 5 4 9.5t9 4.5h1h149q5 0 9 -4.5t4 -9.5v-1v-231h70v206v0zM450 147h124v217h-124v-217zM266 347q-7 -7 -16 -7t-16 7q-6 7 -6 16.5t6 16.5l263 281q6 7 15 7t16 -7l261 -281q7 -7 7 -16.5t-7 -16.5q-6 -7 -15 -7t-15 7l-247 264z" />
    <glyph glyph-name="uniE63D" unicode="&#xe63d;" 
d="M296 523v1v-1zM948 323l-370 473q-28 35 -68 35t-67 -35l-369 -473q-7 -9 -6.5 -20.5t8 -19t18 -7t16.5 9.5l55 70v-160h1v-146q0 -46 28.5 -78.5t69.5 -32.5h148v279q0 23 14.5 39.5t34.5 16.5h98q21 0 35.5 -16.5t14.5 -39.5v-279h147q41 0 70 32.5t29 78.5v227v80
l56 -71q7 -9 18 -9q10 0 17 7t7.5 18.5t-5.5 20.5zM296 523v1v-1z" />
    <glyph glyph-name="uniE63E" unicode="&#xe63e;" 
d="M427 43v256h170v-256h214v341h128l-427 384l-427 -384h128v-341h214z" />
    <glyph glyph-name="uniE63F" unicode="&#xe63f;" 
d="M767 0q0 -26 -18.5 -45t-45.5 -19h-382q-26 0 -45.5 19t-19.5 45v492l256 310l256 -309zM512 896l-480 -565l45 -45l115 130v-416q0 -53 38 -90.5t91 -37.5h382q53 0 91 37.5t38 90.5v416l116 -130l45 45z" />
    <glyph glyph-name="uniE640" unicode="&#xe640;" 
d="M496.5 -84q-93.5 0 -179.5 36q-83 35 -146.5 98.5t-98.5 146.5q-37 86 -37 179.5t37 179.5q35 83 98.5 146.5t146.5 98.5q86 37 179.5 37t179.5 -37q83 -35 146.5 -98.5t98.5 -146.5q36 -86 36 -179.5t-36 -179.5q-35 -83 -98.5 -146.5t-146.5 -98.5q-86 -36 -179.5 -36z
M496.5 803q-115.5 0 -214 -57t-155.5 -155.5t-57 -214t57 -213.5t155.5 -155.5t214 -57.5t213.5 57.5t155.5 155.5t57.5 213.5t-57.5 214t-155.5 155.5t-213.5 57zM154 304l5 59l2 43v19v16v11q17 -1 26 -1q6 0 23 1q-3 -31 -4 -55h59q1 9 1.5 24t0.5 20q0 3 -1 11l26 -1
q4 0 23 1q-4 -56 -5 -83t-1 -65h-24h-25q2 26 3 60h-58l-2 -60h-25h-24zM425 454q17 0 33 -4.5t28 -14.5t18 -23.5t6 -30.5q0 -18 -6.5 -33.5t-19 -26t-29.5 -15.5t-36 -5q-18 0 -34.5 5t-29 15.5t-18 24t-5.5 29.5q0 24 11 41.5t33 27.5t49 10zM423 422q-13 0 -23 -6
t-15.5 -17t-5.5 -23t5 -21.5t15 -15t21 -5.5q12 0 22 6t15.5 17t5.5 23t-5 21.5t-14.5 15t-20.5 5.5zM525 304l2 22l7 76l3 50q20 -1 32 -1q9 0 28 1q2 -10 3 -14.5t4.5 -18.5t6 -24.5t7.5 -34.5q4 17 8 29t10 27.5t8 20.5l4 15q16 -1 32 -1q10 0 29 1q-2 -37 -3 -63
q-1 -51 -1 -70v-15h-20h-20q1 10 2 46.5t1 46.5v12l-14 -44l-21 -61h-19h-20l-14 60l-8 31q0 2 -0.5 4.5t-1.5 9.5l-3 -30l-4 -61v-14h-19h-19zM731 304q3 28 4 47t2.5 50t1.5 41l-1 10q26 -1 62 -1q34 0 59 1v-4q0 -1 -1 -9v-12q-1 -4 -1 -8q-20 1 -35 1h-20h-18l-1 -25
q13 -1 30 -1q6 0 32 1q-1 -14 -2 -33h-29h-33l-1 -27h12q5 0 23 1h22q5 0 17 1q-2 -16 -2 -33h-58h-48h-15z" />
    <glyph glyph-name="uniE641" unicode="&#xe641;" 
d="M741 3h-230v119l-17 2v-121h-234v405h-201l449 307l448 -307h-215v-405zM536 28h180v405h161l-369 253l-369 -253h145v-405h186v123l66 -6v-117z" />
    <glyph glyph-name="uniE642" unicode="&#xe642;" 
d="M512 896q-104 0 -199 -40.5t-163.5 -109t-109 -163.5t-40.5 -199t40.5 -199t109 -163.5t163.5 -109t199 -40.5t199 40.5t163.5 109t109 163.5t40.5 199t-40.5 199t-109 163.5t-163.5 109t-199 40.5zM512 -100q-98 0 -187.5 38.5t-154.5 103.5t-103.5 154.5t-38.5 187.5
t38.5 187.5t103.5 154.5t154.5 103.5t187.5 38.5t187.5 -38.5t154.5 -103.5t103.5 -154.5t38.5 -187.5t-38.5 -187.5t-103.5 -154.5t-154.5 -103.5t-187.5 -38.5zM729 73h-4h-418q-53 0 -71 19q-20 20 -19 68v309h-5h-1q-6 0 -10 4.5t-4 10t5 9.5l196 163q10 9 23 19t41 25
t49 15q25 0 50.5 -11.5t66.5 -45.5l56 -48q96 -82 128 -107l4 -4q6 -4 8 -7q3 -4 2 -9q-1 -8 -7 -11q-2 -2 -5 -2h-3l-6 2v-310q1 -59 -24 -78q-16 -11 -52 -11zM512 263q7 0 10 -5q5 -6 3 -15v-142h200h3q28 0 36 6q14 10 13 55v3v330l-2 1q-29 25 -103 87l-1 1
q-46 39 -62 52q-38 32 -58.5 41.5t-39.5 9.5q-18 0 -45.5 -17t-48.5 -35l-172 -143v-332q0 -37 11 -48q10 -11 50 -11h191v141q0 12 3 16q3 5 12 5z" />
    <glyph glyph-name="uniE643" unicode="&#xe643;" horiz-adv-x="1000" 
d="M680 192l1 -4v-3l1 -3v-3l1 -2v-4l1 -2v-3v-3l1 -2v-3v-3v-2v-2v-3v-2v-2v-3v-2v-2l-1 -2v-2v-2l-1 -2v-2l-1 -2v-2l-1 -2l-1 -1v-2l-1 -2l-1 -2l-1 -2v-1l-1 -2l-2 -2l-1 -1l-1 -2l-1 -2l-1 -1l-2 -2l-1 -2l-2 -1l-1 -2l-2 -1l-1 -2l-2 -1l-2 -2l-2 -2l-1 -1l-2 -2
l-3 -1l-2 -2l-2 -1l-2 -2l-2 -1l-3 -2l-2 -2l-3 -1l-2 -2l-3 -2l-3 -1l-2 -2l-3 -2h-4l-4 -1h-3h-4l-3 -1h-3h-4h-3l-3 -1h-3h-3h-3h-3h-3h-2h-3h-3l-2 1h-3h-2h-3l-2 1h-2h-3l-2 1h-2l-2 1l-2 1h-2l-2 1l-2 1h-2l-2 1l-2 1l-2 1l-2 1l-1 1l-2 1l-2 2l-2 1l-1 1l-2 1l-2 2
l-2 1l-1 2l-2 1l-1 2l-2 2l-2 2l-1 2l-2 1l-1 2l-2 2l-2 2l-1 3l-2 2l-1 2l-2 3l-1 2l-2 2l-2 3l-1 3l-2 3l-2 2l-3 14l-1 3v3l-1 2v3l-1 2v3v2l-1 3v2v3l1 2v3v2l1 2v3v2l1 2v2l1 3l1 2v2l1 2l1 2l1 2l1 2l1 2l1 2l1 2l1 2l1 2l2 2l1 1l1 2l2 2l1 1l2 2l1 2l2 1l2 2l1 1
l2 2l1 1l2 2l2 1l2 1l2 2l2 1l2 1l2 1l2 1l2 2l2 1l2 1h2l2 1l2 1l2 1l2 1l3 1l2 1h2l2 1l3 1h2l2 1l3 1h2h2l3 1h2h2l3 1h2h3h2h3h2h2h2h3h2h3h2l2 -1h3h2l3 -1h2l2 -1h3l2 -1l2 -1h3l2 -1l2 -1h2l2 -1l2 -1l3 -1l2 -2h2l2 -2l2 -1l2 -1l2 -1l2 -2l2 -1l2 -2l2 -1l2 -2
l1 -1l2 -2l2 -1l2 -2l1 -2l2 -2l1 -2l2 -2l2 -2l1 -2l1 -2l2 -2l1 -2l1 -3l2 -2l1 -3l1 -2zM592 304h-2h-2h-2h-2h-2h-2h-3h-2h-2h-2h-2h-2h-2h-2h-2l-2 -1h-1h-2h-2l-2 -1h-2h-2l-2 -1h-2h-1l-2 -1h-2h-2l-2 -1h-1l-2 -1h-1l-2 -1h-2l-2 -1h-1l-2 -1h-2l-1 -1l-2 -1h-1
l-2 -1l-2 -1h-1l-3 -2l-4 -1l-2 -2l-3 -1l-3 -2l-3 -2l-3 -1l-3 -2l-3 -2l-2 -2l-2 -1l-2 -1l-1 -2h-2l-1 -2l-2 -1l-1 -1l-1 -1l-2 -1l-1 -2l-1 -1l-2 -1l-1 -1l-2 -2l-1 -1l-1 -1l-1 -1l-1 -2l-2 -1l-1 -1l-1 -1l-1 -2l-1 -1l-1 -1l-1 -2l-2 -1l-1 -1l-1 -2l-1 -1l-1 -2
l-1 -1v-1l-1 -2l-2 -1v-2l-1 -1l-1 -2l-1 -1l-1 -1v-2l-1 -1l-1 -1v-2l-1 -2l-1 -1l-1 -1v-2l-1 -1v-1l-1 -2v-2l-1 -1v-1l-1 -2v-1v-2l-1 -1v-2v-1l-1 -1v-2l-1 -1v-1v-2l-1 -4v-4l-1 -4v-4l-1 -3v-3v-4l-1 -3v-3v-3v-3v-3v-2v-3v-3l1 -2v-3l1 -3v-3l1 -2v-3l1 -3l1 -3
l1 -3l1 -3l1 -3l2 -4l1 -3l1 -4l2 -4l2 -4l2 -4l8 -12l5 -4l6 -5l5 -3l6 -4l5 -4l5 -3l5 -4l3 -1l2 -2l3 -2l2 -1l3 -1l2 -2l3 -2l2 -1l2 -1l3 -2l2 -1l2 -1l3 -1l2 -2l2 -1l3 -1l2 -1l2 -1l2 -1l3 -1l2 -1l2 -1l2 -1h3l2 -1l2 -1l2 -1h3l2 -1l2 -1h2l2 -1h2l2 -1h2l2 -1h2
h2h3l2 -1h2h2h2h2l2 -1h2h2h2l2 1h2h2h2h2h2l2 1h2h2l2 1h2h2l2 1l2 1h2l2 1l2 1h2l2 1l2 1h2l2 1l2 1l2 1l2 1l2 1l2 1l2 1l2 1l2 1l3 1l2 2l2 1l2 1l2 1l2 2l2 1l2 1l2 2l2 2l2 1l2 2l3 1l2 2l2 1l2 2l2 2l2 2l2 2l3 1l2 2l2 2l2 2l3 2l4 4l5 5l4 4l5 5l5 4l5 5l5 13l1 5
l1 6v5v5l1 6v5v5v5v4v5v4v5v4v4v2v2l-1 2v2v3v1l-1 2v2v2l-1 2v2v2l-1 2v1l-1 2v2l-1 1v2l-1 2v1l-1 2l-1 1v2l-1 2v1l-1 2l-1 2l-1 1l-1 1v2l-1 2l-1 1l-1 1l-1 2l-1 1l-1 1v2l-2 1l-1 1l-1 2l-1 1l-1 2l-1 1l-1 1l-2 1l-1 2l-1 1l-1 1l-2 1l-1 2l-1 1l-2 1l-1 1l-2 1l-1 1
l-1 2l-2 1l-2 1l-1 1l-2 1l-2 1l-2 1l-1 2h-2l-2 2l-1 1l-3 1l-1 1l-2 1l-2 1l-2 1l-2 1l-4 2l-5 2l-4 2l-5 2l-5 2l-4 2l-5 2l-6 2l-5 2l-5 2l-6 2l-6 3l-6 1zM153 232l-3 -1h-2l-2 -1h-2l-2 -1l-2 -1h-2l-2 -1l-2 -1l-1 -1h-2l-2 -1l-1 -1l-2 -1l-1 -1l-2 -1l-1 -1l-1 -2
l-2 -1l-1 -1l-1 -1l-2 -2l-1 -1l-1 -1l-1 -2l-1 -1l-1 -2l-1 -1l-2 -2l-1 -1l-1 -2l-1 -2l5 -1l5 -1l2 -1h3l2 -1h2l3 -1h2h3h2h3h1h1h1h2h1h1h1h1h1h1h2h1h1l1 1h1h1l1 1h1l1 1h1l1 1h1l1 1h1l1 1l1 1l1 1h1l1 1l1 1l1 1v1l1 1l1 1l1 1v1l2 2v1v1v1l-1 2v1v1l-1 1v2v1v2v1
v1zM176 136h-1l-2 -1h-2h-1l-2 -1h-1l-1 -1h-2l-1 -1h-1l-1 -1h-1l-1 -1l-1 -1l-1 -1h-2l-1 -1v-1l-1 -1l-1 -1l-1 -1h-1v-1l-1 -1v-1l-1 -1l-1 -1v-1l-1 -1v-1l-1 -1v-1h1v-1h1l1 -1h1l1 -1h1h1v-1h1h1l1 -1h2h1h1h1h1h1h1h1h2h2l1 1h2l1 1h2l1 1h2l1 1h2l3 1l3 2l2 1l3 1
l1 1h2l1 11v1h-1v1l-1 1l-1 1l-1 1h-1v1h-1h-1v1h-1h-1h-1v1h-1h-1h-1h-1h-1h-1l-1 -1h-1h-1zM754 415v-3l1 -4l1 -3l1 -3l1 -3v-3l1 -3l1 -3l1 -2v-3l1 -2l1 -2l1 -2l2 -3l1 -2l1 -2l1 -2l1 -2l2 -2l1 -2l2 -2l2 -2l1 -2l2 -2l3 -2l2 -3l2 -2l3 -2l2 -3l3 -2l3 -3l3 -2
l52 -37l4 -4l4 -4l3 -3l3 -4l4 -3l2 -3l3 -3l3 -3l2 -3l2 -3l2 -2l3 -3l1 -3l2 -2l2 -3l2 -3l1 -2l1 -3l2 -3l1 -2l1 -4l2 -2l1 -4l1 -2l1 -4l1 -3l2 -4l1 -3l3 -8l2 -8l5 -18l2 -8l2 -7l1 -3v-4l1 -3l1 -3l1 -3v-3l1 -3v-3l1 -3v-3l1 -3v-4v-3v-3l1 -4v-3v-3v-4v-4l1 -4v-4
v-5v-4v-5l4 -58v-6l-1 -5v-4v-5v-4v-4v-3v-4v-4l1 -3v-4v-4l1 -9l1 -11h-5h-5h-4h-4h-7h-3l-4 -1h-1h-2h-1h-2h-1h-2l-2 -1h-1h-2h-2l-1 -1h-2l-2 -1h-2h-2l-2 -1l-1 -2l-1 -1l-1 -1h-1v-1l-1 -1v-1l-1 -1v-1l-1 -1v-1v-1l-16 -4h-66l-22 21h-338l-12 -5l-6 -12l-13 -4h-86
l-19 17h-47l-1 3l-2 2l-1 3l-1 2v2l-1 2l-1 2v2l-1 2v1l-1 2v2v1l-1 2v1v2v2l-1 1v2v2v3v3v4v4v2v3l-1 2v3l-8 -1l-3 -1h-4h-4h-3l-3 -1h-3h-3h-3h-2h-3h-3h-2h-2h-3l-2 1h-2h-3l-2 1h-2l-2 1h-3l-2 1l-3 1h-2l-3 1l-2 1l-3 1l-3 1l-3 1l-3 1l-4 3l-3 2l-3 2l-3 2l-3 2l-3 3
l-2 1l-3 3l-1 1h-1l-1 1l-1 1l-1 1l-1 1l-1 1l-1 1l-1 1v1l-1 1l-1 1v1l-1 1l-1 1v1l-1 1v1l-1 1l-1 1v1v1l-1 1v2v1l-1 1v1v1v2v1l-1 1v2v1v1v2v1v1v2v2v1v2l1 2v3v3l1 4l-2 1l-2 1l-2 1l-2 1l-1 1l-2 1l-1 1l-2 1l-2 2l-1 1l-2 1l-1 1l-1 2l-2 1l-1 1l-1 2l-1 1l-1 2l-1 1
l-1 2l-1 1l-1 2l-1 2l-1 1v2l-1 1l-1 2v2l-1 1v2l-1 2v2l-1 1v2l-1 2v1v2l-1 2v2v1v2v2v2l-1 1v2v2v1v2l1 2v1v2v2v1v2v2l1 1v1v2v2l1 1v1l1 2v1v1l-1 2l-1 1l-1 1l-1 2l-1 1v1l-1 1l-1 2l-1 1l-1 1v2l-1 1l-1 1l-1 1v2l-1 1v2l-1 1v1l-1 1v2l-1 1v1l-1 2v1v1l-1 2v1l-1 1v1
v2v1v1l-1 2v1v2v1v1v1v2v1v1v2v1v1v1v2v1v1v1l1 3v3l1 2l1 3v2l1 2l1 3l1 2l1 2l1 3l1 2l1 2l2 3l1 2l1 2l2 2l1 2l2 2l2 2l1 3l2 1l2 2l2 2l2 2l2 2l2 1l2 2l3 2l2 1l2 2l3 1l2 2l2 1l3 2l3 1l2 1l3 1l3 1l3 1l204 79l2 -5l2 -5v-3l1 -2l1 -3l1 -2l1 -3v-2v-1l1 -1v-1v-2
v-1v-1v-1v-1v-1v-1v-1v-1v-1v-1v-1v-1l-1 -1v-1v-1l-1 -1v-1l-1 -1l-1 -1l-1 -1v-1l-1 -1l-1 -1h-1v-1l-1 -1l-2 -1l-1 -1h-1l-1 -1h-1l-2 -1l-1 -1h-2l-1 -1l-2 -1h-2l-1 -1h-3l-62 -23l-4 -1l-4 -1l-4 -1l-4 -1l-4 -1l-4 -1l-4 -1l-3 -1l-4 -1l-3 -1l-4 -1l-3 -1l-1 -1h-2
l-1 -1l-2 -1h-1l-1 -1h-2l-1 -1l-3 3l-1 2l-2 1l-1 1l-1 2l-2 1l-1 1h-1v1h-1l-1 1l-1 1h-1h-1l-1 1h-1h-1h-1l-1 1h-1l-3 -1l-3 -1h-3l-3 -1l-2 -1l-3 -1l-2 -1l-3 -1l-2 -1l-2 -1l-3 -1l-2 -1l-2 -1l-3 -1l-2 -1l-2 -1l-2 -2l-2 -1l-2 -1l-2 -2l-2 -1l-2 -2l-1 -1l-2 -1
l-1 -2l-2 -2l-2 -1l-1 -2l-1 -1l-2 -2l-1 -2l-1 -2l-2 -1l-1 -2l-1 -2l-1 -1l-1 -2v-2l-1 -2l-1 -2l-1 -2l-1 -2v-1l-1 -2v-3v-1l-1 -2v-2v-2v-2v-2v-2v-2v-2v-3l1 -1v-3v-1l1 -3v-2l1 -2l1 -2l1 -2l1 -2l1 1v2l1 1l1 1l1 1l2 1l1 1l1 1l1 1l1 1l1 1l1 1l2 1l1 1l1 1l1 1
l2 1h1l1 1l2 1l1 1l1 1l2 1h1l2 1h1l1 1l2 1h1l2 1h1l2 1h1l2 1h1l2 1h1l2 1h1h2l1 1h2h1l2 1h1h2h1h2h1h2l1 1h2h1h2h1h2h1h2h1h2h1h1l2 -1h1h2h1h2l1 -1h2l1 -1h1l2 -1l1 -1h1l2 -1l1 -1l1 -1l1 -1l1 -1l1 -1h1l1 -2l1 -1l1 -1l1 -1l1 -1l1 -1l1 -2v-1l1 -1l1 -2l1 -1v-1
l1 -2v-1l1 -2v-1v-1l1 -2v-1v-1v-2v-1v-2v-1v-2v-1v-1v-2v-1v-1l-1 -2v-1v-1l-1 -2v-1l-1 -1l-1 -1l-1 -1v-2l-1 -1l-1 -1l-1 -1l-1 -1l-1 -1l-1 -1l-1 -1h-2l-2 -2l-3 -2l-3 -2l-3 -1l-2 -2l-3 -1l-3 -2h-2l-1 -1l-2 -1h-1l-1 -1h-2l-1 -1l-2 -1h-2l-1 -1h-1l-2 -1h-2h-1
l-2 -1h-1h-2l-1 -1h-2h-1h-2l-1 -1h-2h-2h-1h-2h-1h-2h-2h-1h-2h-1h-2h-2l-1 1h-2h-2h-1l-2 1h-2h-1l-2 1h-2l-2 1h-1l-2 1h-1l-2 1l-2 1h-2v-1l-1 -2v-2v-2l-1 -2v-2v-2v-1v-2v-2l1 -2v-1v-2l1 -2v-1l1 -2v-1l1 -2l1 -1v-2l2 -1l1 -2l1 -2l1 -1l1 -2l1 -1l1 -1l2 -2l2 -2
l1 -1l2 -1l2 -2l1 1v2l1 1l1 1v1l1 1l1 1l1 1v2l1 1l1 1l1 1l1 1l1 1l1 1l1 1l1 1v1l1 1l2 1h1l1 1l1 1l1 1l1 1l1 1h1l1 1l1 1l1 1l2 1h1l1 1h1l1 1l1 1h2l1 1l1 1h1l1 1h2h1l1 1h1h2l1 1h1h2l1 1h1h1h2h1l1 1h2h1h1h1h2h1h1l2 -1h1h1h2h1h2h1l2 -1h1l2 -1h1h1l1 -1h1l2 -1
l1 -1h1l1 -1l1 -1l1 -1h1l1 -1l1 -1l1 -1l1 -1l1 -1l1 -1v-1l1 -1l1 -1v-1l1 -1l1 -1v-1l1 -1l1 -1v-1v-1l1 -1v-1v-1l1 -1v-2v-1v-1v-1v-1v-1v-1v-1v-1v-1v-1l-1 -1v-1v-1v-1l-1 -1v-1l-1 -1h-1v-1l-1 -1l-1 -1v-1h-1l-3 -2l-3 -2l-2 -2l-3 -2l-3 -1l-2 -2l-2 -1l-3 -1
l-2 -2h-2l-1 -1h-1l-2 -1h-1l-1 -1h-1l-1 -1h-1h-1h-1l-1 -1h-1h-1h-1h-2h-1l-1 -1h-1h-1h-1h-2h-1h-1h-2h-1h-1l-3 1h-2h-3l-3 1h-4l-3 1h-3l-4 1l-4 1l1 -3v-2l1 -2v-3l1 -2l1 -2v-2l1 -3l1 -1v-2l1 -2l1 -2l1 -2l1 -1l1 -2l1 -2l1 -1l1 -1l1 -2l1 -1l1 -1l1 -1l1 -1l1 -2
h2l1 -1l1 -1l2 -1l1 -1l1 -1h2l1 -1l2 -1h2l1 -1h2l1 -1h2l2 -1h2h2h2h2l2 -1h2h2h2h2h2h3h2h3h2h3h5l5 1h6h6l5 1l-1 7l-1 7l-1 7v2l-1 3v3v3v2v3l-1 2v2v2v3v2v2v2v2v2l1 2v3v2v2v3l1 4l1 6v5l1 3v3v3v2l1 3v2l1 3v3l1 2v3l1 3l1 2v3l1 3l1 2v3l1 2l1 3l1 3l1 2l1 3l1 3
l1 2v3l1 2l1 3l1 2l1 2l2 3l1 2l1 2l1 3l1 2l1 2l1 2l1 3l1 2l1 2l1 2l1 3l1 2l2 2l1 3l1 2l2 2l1 2l1 3l2 2l2 2l1 2l2 3l1 2l2 3l2 2l2 2l1 3l2 2l2 3l4 5l4 5l4 5l57 54l1 2l1 1l1 2l2 2l1 1v2l1 2l1 1l1 2l1 2v1l1 2v2l1 2l1 1v2l1 2v1l1 4l1 3l1 3l1 6v3l1 3l1 2v2l1 2
v1v2l1 2v2v2v2v1v4l1 3v3v4v1v2v1l1 2v1v2l1 1v1v2l1 1v1h1v1v1h1v1l1 1v0l1 1l1 1v1h1v1h1l1 1h1h1l1 1h1h1h1l1 1h1h1h1h1h1h2h2l3 -1h2h2l5 -1h4h3l2 -1h2h2h3h1h1h1h1h1h1h1h1h1h1l1 1h1h1l1 -1l2 -1l1 -1l1 -2l1 -1l1 -1v-1l1 -2l1 -1v-1l1 -2l1 -1v-2l1 -1v-1v-2v-2
l1 -1v-1v-2v-2v-1v-2v-1v-2v-1v-3v-4v-3v-6v-3v-4v-3v-2v-1v-1v-2v-1v-2v-2l1 -1v-1v-2v-1l1 -1v-2l1 -1v-1l1 -2v-1l1 -2l1 -1l1 -1l1 -1l1 -1h204l-1 3v3l-1 2v3l-1 3v3v3l-1 3v2v3v3v2v3v3v3v2v3v2l1 3v3v2v3l1 2v3v2l1 2v3l1 2v3l1 2l1 4l10 8l1 -1h2h2h1h3h1h4h8h4h2h2
h2h2h2h2h1l2 -1h2h2l1 -1h1h1h1l1 -1h1h1v-1h1l1 -1l1 -1l1 -1l1 -1v-1v-2l1 -1v-2l1 -3l1 -4l1 -2v-1zM908 607v-3v-4v-3v-3v-3v-1v-1v-1v-2v-2v-1l-1 -1v-1v-1l-1 -1v-1v-2h-1l-1 -2v-1l-1 -2l-1 -1l-1 -1l-1 -2l-1 -1l-1 -2l-111 -37l-2 1h-2l-1 1h-2l-2 1h-1l-2 1h-1
l-1 1h-2l-1 1h-1l-1 1l-1 1h-1l-1 1l-2 1l-2 1l-2 2l-2 1l-3 1l-2 2l-3 2l-3 2l-1 3l-1 1v1l-1 2v1v0v1v0v1v0l1 1v0l1 1h1v1h1l1 1h2l152 53zM851 703l3 -2l3 -3l2 -2l2 -2l2 -2l2 -2l2 -2l2 -2l2 -2l1 -2l1 -1l2 -2l1 -2l2 -1l1 -2l1 -2l1 -2l1 -2l1 -2l1 -1l1 -2l1 -2
l1 -2l1 -3l1 -2v-2l2 -6l5 -11l-159 -56l-3 1l-3 1l-2 1l-2 1h-2h-1l-1 1h-1h-1v0l-1 2l-2 2l-3 4l-3 5l-1 2l-2 2l-1 2l-2 2l-2 2l-1 2l-2 2l-1 2l-1 1l-2 1v1l-1 1h-1l-1 1l-1 1l-1 1h-1l-1 1l-1 1h-1l-1 1h-1l-1 1h-1l-1 1h-1l-1 1h-2h-1l-1 1h-1h-1h-1h-2h-1h-1h-1h-2
l-1 -1h-2h-1l-1 -1h-2l-1 -1l-319 -113l-2 -1l-2 -1h-2l-3 -1h-1l-2 -1l-2 -1l-2 -1h-1l-2 -1l-1 -1l-2 -1l-1 -1l-2 -1l-1 -1l-1 -1l-1 -1l-1 -1l-1 -1l-2 -1l-1 -2v-1l-1 -1l-1 -1l-1 -1v-2l-1 -1v-1l-1 -2v-1l-1 -2v-1l-1 -1v-2v-1v-2l-1 -1v-2v-1v-2v-1l1 -2v-1v-2v-1
v-2l1 -2v-1l1 -2v-1l1 -2v-1l1 -2v-2l1 -1l1 -2v-2l1 -1l1 -2l1 -1l1 -2l1 -1l1 -2l1 -1l-176 -67l-1 2l-1 1l-1 2l-1 1l-2 2l-1 1l-1 2l-1 2l-1 1l-1 2l-1 2l-1 1l-1 2l-1 2l-1 1v2l-1 2l-1 1l-1 2v1l-1 2v2l-1 1l-1 2v2l-1 1v2l-1 2v2v1l-1 2v2v1l-1 2v2v1v2v2v1v2v1v2v2
v1v2v2v2v1v2v2l1 1v2v2l1 1v2v2l1 1v2l1 1v2l1 2v1l1 2v2l1 1l1 2v2l1 1l1 2v1l1 2l1 1l1 2l1 2l1 1v2l1 1l1 2l1 1l1 2l1 1l1 2l1 1l1 2l2 1l1 2l1 1l1 2l1 1l2 2l1 1l1 1l1 2l1 1l2 1l1 2l2 1l1 1l1 2l2 1l2 2l1 1l1 1l2 1l1 2l2 1l2 1l1 1l2 2l1 1l2 1l2 1l2 1l1 1l2 1
l2 2l2 1l1 1l2 1l2 1l2 1l2 1l2 1l2 1l2 1l2 1l2 1l2 1l352 152l2 1l2 1l2 1l3 1l2 1l2 1l2 1l2 1l3 1l2 1l2 1l3 1l2 1h2l2 1l3 1l2 1h2l3 1l2 1h2l3 1h2l2 1h3l2 1h3l2 1h2l2 1h3h2l2 1h3l5 1h5h4l5 1h5h5l4 1h5h5h5h5h4h5h9l13 1h5h6h5h5h5h4l5 -1h4h4h2h2l2 -1h2h2h2
l2 -1h2h2h2l2 -1h1l2 -1h2l2 -1h2l2 -1h2l2 -1h2l2 -1l2 -1h2l2 -1l2 -1l2 -1h2l2 -1l5 -2l4 -2l5 -2l5 -2l5 -3l6 -2z" />
    <glyph glyph-name="uniE644" unicode="&#xe644;" 
d="M925.5 140.5q0.5 8.5 -5.5 13.5l-184 173q-6 6 -13.5 5.5t-12.5 -7.5q-12 -14 -32 -29.5t-37 -15.5q-10 0 -19 8q-9 9 -22 21.5t-26 26.5l-28 27l-26 26l-22 21q-9 10 -14 16l-6 6q-2 2 -4 5t-4 13t-1 21t9 29t23 38q9 11 0 23l-145 175q-10 12 -24 4q-4 -3 -11 -8
t-24 -20t-31 -31.5t-27 -43t-18 -54.5q-17 -102 75 -210l1 -1l233 -233q4 -5 10.5 -11t26.5 -21t41 -26t53.5 -20t66.5 -9q14 0 30 2q11 -57 -43 -112q-26 -26 -64 -25q-52 2 -89 43q0 1 -1 1l-263 270q-1 2 -3 3q-16 13 -39 21.5t-56 3.5t-61 -31q-27 -26 -35 -59t-3 -56.5
t16 -41.5l4 -6l107 -107q9 -8 21.5 -8t21.5 8.5t9 21t-9 21.5l-104 104q-23 45 13 79q15 14 33 15.5t27 -2.5t16 -9l262 -268q25 -29 60 -45.5t72 -17.5h4q61 0 103 42q79 79 60 169q52 19 102 59q6 5 6.5 13.5z" />
    <glyph glyph-name="uniE645" unicode="&#xe645;" 
d="M975 386q0 25 -20 39l-406 297q-13 10 -29 10t-29 -10l-406 -297q-8 -5 -13 -15q-3 -2 -5 -5q-3 -6 -1 -13q0 -1 -0.5 -3t-0.5 -3v-493q0 -20 14.5 -34.5t34.5 -14.5h812q20 0 34.5 14.5t14.5 34.5v493zM513 693q3 2 7 2t7 -2l399 -292l-406 -232l-407 232zM934.5 -115.5
q-3.5 -3.5 -8.5 -3.5h-812q-5 0 -8.5 3.5t-3.5 8.5v472l409 -233q4 -2 9 -2t9 2l409 234v-473q0 -5 -3.5 -8.5z" />
    <glyph glyph-name="uniE646" unicode="&#xe646;" 
d="M869 633h-720q-35 0 -59 -24.5t-24 -59.5v-498q0 -35 24 -59.5t59 -24.5h720q35 0 59 24.5t24 59.5v498q0 35 -24 59.5t-59 24.5zM141 23l-20 20l229 229l20 -20zM876 23l-228 229l20 20l229 -229zM537 208v-19h-56v19l-360 334l35 35l353 -327l353 327l35 -35z" />
    <glyph glyph-name="uniE647" unicode="&#xe647;" 
d="M716 -146q-68 0 -179 69q-105 65 -206 163l-21 21q-98 100 -163 206q-68 111 -68 179q0 66 61 147q11 16 24.5 31t38.5 33t44 18q25 0 61 -37q27 -28 57 -71q28 -41 48 -78q23 -43 23 -64q0 -27 -29 -47q-12 -9 -42 -21q-25 -11 -31 -16q5 -21 36 -66q36 -53 79 -97
q43 -42 96 -79q45 -30 66 -35q5 6 16 31q13 30 21 42q20 28 47 28q22 0 65 -22q37 -20 78 -48q43 -31 70 -57q37 -36 37 -61q0 -20 -17.5 -44.5t-33 -38t-30.5 -24.5q-82 -62 -148 -62zM367 122q96 -94 197 -155q99 -61 152 -61q48 0 115 49q28 21 46 42q14 16 17 25
q-4 9 -27 30.5t-63 49.5q-37 25 -69 42q-28 14 -39 16q-3 -2 -8 -10t-14 -29q-11 -26 -18 -37q-17 -26 -42 -26h-1q-31 1 -96 45q-58 39 -104 85h-1q-46 47 -85 104q-44 65 -44 97q-1 25 25 42q11 7 37 19q21 9 29 13.5t10 8.5q-1 11 -16 39q-17 32 -42 68
q-28 41 -49.5 63.5t-30.5 27.5q-9 -3 -25 -17q-21 -18 -42 -47q-49 -66 -49 -114q0 -54 61 -152q62 -101 156 -197z" />
    <glyph glyph-name="uniE648" unicode="&#xe648;" 
d="M886 604h-748q-31 0 -53 -22t-22 -53v-458q0 -31 22 -53t53 -22h748q31 0 53 22t22 53v458q0 31 -22 53t-53 22zM868 550l-298 -264q-39 -35 -58 -35t-58 35l-298 264h712zM119 88v414l233 -205zM158 50l234 207l38 -34q34 -29 82 -29t82 29l38 34l234 -207h-708zM905 88
l-233 209l233 205v-414zM905 88z" />
    <glyph glyph-name="uniE649" unicode="&#xe649;" 
d="M900 48q-10 16 -23 25l-156 101v1q-11 6 -21 6q-16 0 -43 -26q-7 -7 -11 -10q-23 -20 -38 -20h-1q-19 1 -50.5 24.5t-56.5 50.5q-92 102 -146 198q-11 19 -5.5 33t30.5 28q31 17 39.5 34t7.5 38q-3 43 -37 124q-4 9 -6 13q-13 32 -31.5 52.5t-30.5 27.5q-16 9 -36 9
q-39 0 -78.5 -29t-57.5 -53q-44 -56 -34 -124q1 -3 1 -4q12 -91 82 -202q44 -72 118 -159q78 -91 163 -171q74 -69 121 -100q32 -21 71 -34t71 -13q17 0 30 4q64 18 126 111q21 33 2 65zM889 -11q-59 -90 -120 -108q-12 -3 -27 -3q-30 0 -68 12.5t-69 33.5
q-47 31 -126.5 106t-154.5 163q-179 210 -198 355q0 2 -1 4q-9 64 32 117q19 25 56.5 51.5t71.5 26.5q17 0 31 -8q12 -6 29 -26.5t29 -47.5q2 -5 5 -14q34 -79 37 -121q1 -11 -1 -19.5t-12 -20t-29 -22.5q-12 -7 -19.5 -13t-13 -15t-5 -21t8.5 -26q55 -97 147 -200
q24 -26 57.5 -51.5t56.5 -27.5h2q19 0 45 23l11 11q24 22 36 22q7 0 16 -4l155 -101q2 -2 5.5 -5t10 -10.5t9.5 -16t2 -20.5t-9 -24z" />
    <glyph glyph-name="uniE64A" unicode="&#xe64a;" 
d="M789 584h-551q-29 0 -49 -20t-20 -48v-368q0 -28 20 -48.5t49 -20.5h551q28 0 48 20.5t20 48.5v368q0 28 -20 48t-48 20zM834 169q0 -28 -20 -48.5t-48 -20.5h-506q-28 0 -48 20.5t-20 48.5v325q0 29 20 49t48 20h506q28 0 48 -20t20 -49v-325zM781 231l15 18l-151 129
l121 121l-17 17l-248 -248l-232 233l-17 -17l118 -117l-132 -133l16 -17l133 133l115 -115l16 16l111 111z" />
    <glyph glyph-name="uniE64B" unicode="&#xe64b;" 
d="M599 453q25 31 38 73q14 43 14 90q37 -14 49 -26.5t12 -35.5q0 -39 -19 -77t-39 -38q-8 0 -21 3q-12 3 -34 11zM215 26q-59 75 -84 139q-26 65 -26 139q0 80 31 155q31 74 88 132q58 57 132 88q75 31 155 31q82 0 155 -31q74 -30 132 -88q57 -57 88 -131.5t31 -155.5
q0 -80 -31 -155t-88 -132q-58 -57 -132.5 -88t-154.5 -31q-98 0 -156 31q-59 31 -59 82q0 11 4 22q4 10 13 22q9 -8 16 -12t13 -4q9 0 27 15q19 16 37 40q15 20 26 46q10 25 10 32q0 5 -12.5 20t-12.5 30q0 21 12 54q12 35 34 80q26 53 42 74t33 27q4 1 13 2q29 3 44 26
q13 22 23 57q10 36 10 60q0 20 -6 27t-26 7q-31 0 -53 -5q-23 -4 -34 -13q-14 -10 -44 -49q-31 -38 -63 -88q-58 -92 -96 -195q-37 -103 -37 -154q0 -10 4 -22q5 -12 16 -29q-15 -20 -22.5 -39t-7.5 -38q0 -64 69 -105q70 -41 183 -41q87 0 170 34q82 34 145 97
q63 62 97 145q34 82 34 170t-34 169q-34 82 -97 145q-63 64 -144 97q-82 34 -171 34t-170 -34t-144 -97q-63 -62 -97 -144t-34 -170q0 -77 24 -143q23 -66 69 -117q9 -11 18.5 -17t17.5 -6q1 0 7 1q3 1 13 4zM364 24q38 27 63 63q24 35 35 77q27 -17 36 -28t9 -22
q0 -31 -31 -72t-59 -41q-8 0 -22 6q-13 6 -31 17z" />
    <glyph glyph-name="uniE64C" unicode="&#xe64c;" 
d="M599 453q25 31 38 73q14 43 14 90q37 -14 49 -26.5t12 -35.5q0 -39 -19 -77t-39 -38q-8 0 -21 3q-12 3 -34 11zM215 26q-59 75 -84 139q-26 65 -26 139q0 80 31 155q31 74 88 132q58 57 132 88q75 31 155 31q82 0 155 -31q74 -30 132 -88q57 -57 88 -131.5t31 -155.5
q0 -80 -31 -155t-88 -132q-58 -57 -132.5 -88t-154.5 -31q-98 0 -156 31q-59 31 -59 82q0 11 4 22q4 10 13 22q9 -8 16 -12t13 -4q9 0 27 15q19 16 37 40q15 20 26 46q10 25 10 32q0 5 -12.5 20t-12.5 30q0 21 12 54q12 35 34 80q26 53 42 74t33 27q4 1 13 2q29 3 44 26
q13 22 23 57q10 36 10 60q0 20 -6 27t-26 7q-31 0 -53 -5q-23 -4 -34 -13q-14 -10 -44 -49q-31 -38 -63 -88q-58 -92 -96 -195q-37 -103 -37 -154q0 -10 4 -22q5 -12 16 -29q-15 -20 -22.5 -39t-7.5 -38q0 -64 69 -105q70 -41 183 -41q87 0 170 34q82 34 145 97
q63 62 97 145q34 82 34 170t-34 169q-34 82 -97 145q-63 64 -144 97q-82 34 -171 34t-170 -34t-144 -97q-63 -62 -97 -144t-34 -170q0 -77 24 -143q23 -66 69 -117q9 -11 18.5 -17t17.5 -6q1 0 7 1q3 1 13 4zM364 24q38 27 63 63q24 35 35 77q27 -17 36 -28t9 -22
q0 -31 -31 -72t-59 -41q-8 0 -22 6q-13 6 -31 17z" />
    <glyph glyph-name="uniE64D" unicode="&#xe64d;" 
d="M388 -161q-50 0 -91 24q-39 22 -71 71q-1 2 -6 10q-22 40 1 96.5t82 102.5q68 54 131 54q46 0 69 -31q7 -5 12 -5q4 0 8 4q0 1 1 1q33 44 61 93q26 45 44 92q3 12 0 16q-2 2 -3 2q-34 0 -57 28q-22 26 -31 68t-3 92q10 76 47 127t83 51h1h1q4 0 8 -1q57 2 102 -23
q68 -39 93 -127.5t2 -204.5t-89 -233q-78 -138 -186.5 -222.5t-208.5 -84.5zM434 146q-45 0 -100 -42q-42 -34 -62 -73.5t-10 -59.5q2 -3 5 -8q22 -38 55 -57q29 -16 66 -16q85 0 183 78.5t168 202.5q58 101 80 204.5t4.5 182t-71.5 109.5q-34 19 -77 16q-3 0 -6 1h-4
q-23 0 -47.5 -39t-32.5 -94q-4 -38 1.5 -71t20.5 -50q9 -11 19 -11q26 0 42 -20q18 -23 10 -60q0 -3 -1 -5q-20 -51 -48 -100q-30 -53 -67 -101l-4 -4q-18 -18 -43 -18q-26 0 -47 18q-3 3 -5 6q-7 11 -29 11zM355 316q-9 0 -16.5 6t-8.5 15q-7 36 14 66t57 37q10 2 18.5 -4
t10.5 -16.5t-4 -19t-16 -10.5q-15 -3 -24 -16t-6 -28q2 -10 -4 -19t-17 -11h-4zM269 318q-9 0 -16 6t-9 15q-12 63 24.5 116t100.5 64q10 2 18.5 -4t10.5 -16t-4 -19t-16 -11q-43 -7 -67.5 -43t-16.5 -78q2 -11 -4 -19.5t-17 -10.5h-4zM170 290q-9 0 -16 6t-8 15
q-20 109 42.5 199.5t171.5 110.5q10 2 18.5 -4t10.5 -16.5t-4 -19t-16 -10.5q-88 -16 -139 -89.5t-34 -161.5q1 -10 -5 -19t-16 -11h-5z" />
    <glyph glyph-name="uniE64E" unicode="&#xe64e;" 
d="M887 594h-751q-33 0 -56.5 -21.5t-23.5 -52.5v-446q0 -30 23.5 -52t56.5 -22h751q33 0 56.5 22t23.5 52v446q0 31 -23.5 52.5t-56.5 21.5v0zM110 74v436l236 -218l-236 -219v1v0zM148 545h727l-364 -336l-363 336v0zM384 257l127 -118l129 118l225 -208h-705l224 208v0z
M678 292h-1l236 218v-436l-235 218v0zM678 292z" />
    <glyph glyph-name="uniE64F" unicode="&#xe64f;" 
d="M972 369h-7l-5 -1h-9h-9h-3h-4h-3l-4 -1h-4h-3h-4l-4 -1l-5 -1l-4 -1h-5l-5 1h-5h-5h-4h-4l-9 1h-8l-5 1h-5h-5h-5h-6h-7h-6l-7 1h-5h-6l-4 1h-5l-5 1l-4 1h-4l-4 1l-8 1l-10 1l-11 2l1 -5l1 -4l1 -5l1 -4l1 -4v-1l1 -3v-1l1 -2l1 -1v-2l1 -1v-2l1 -1v-2l1 -1l1 -1l1 -1
v-1l1 -1v-1l1 -1l1 -1l1 -1l1 -1v-1l1 -1l1 -1l1 -1h1v-1l1 -1h1l1 -1l1 -1h1l1 -1h1l2 -1h1l1 -1l1 -1h1l3 -1l2 -1l3 -1l3 -1h3l3 -1l4 -1l4 -1l7 -1h6l6 -1h6h6l5 -1h4h5l5 -1h6h6h6h6h8h17l4 1h5l4 1h3l4 1l3 1l3 1h2l1 1h2h1l1 1h2h1l1 1l2 1h1l1 1h1l1 1h1l1 2h1v1
l2 1h1v1l1 1l1 1l1 1l1 1v1l1 1l1 2v1l1 1l1 1v1l1 2v1l1 2v1l1 2v1l1 2v2l1 2v1l1 2v2v2l1 5l1 4zM54 369v-2v-2v-2v-2v-1v-2v-2v-1v-2l1 -2v-2v-1v-2l1 -1v-1v-2l1 -2v-1l1 -2l1 -1v-1l1 -1v-2l1 -1l1 -1v-1l2 -1v-1l1 -2l1 -1l1 -1h1l1 -2l1 -1h1l1 -1l1 -1h1l1 -2h1
l2 -1h1l1 -1l1 -1l1 -1h2l1 -1h1h2l1 -1h2l1 -1h1l2 -1h1h2h1h2h1l2 -1h1h2h1h2h7h7l7 -1h7h7h6h7h6h6h6h6h6h5l6 1h5h5l6 1l5 2h3l3 1h3l2 1l3 1l3 1l2 1h2l1 1h1h2l1 2h1l1 1h1l1 1h2l1 1l1 1l1 1l1 1h1l1 1l1 2h1l2 2l1 1l1 1v1l1 1l1 1l1 2l1 1l1 1l1 2l1 1l1 2v2l1 1
l1 2l1 2v2l1 2v2l1 2v2l1 2v2l1 3v9h-3l-2 -1h-5l-5 -1h-5l-5 -2h-5l-10 -1l-4 -1l-5 -1l-4 -1h-5h-2h-2l-2 -1h-3h-2h-2h-2h-2h-3h-3h-3h-3h-3l-3 1l-3 -1h-3h-6h-6h-6h-5l-6 -1h-5l-10 -1h-4h-4h-3l-3 -1l-2 1h-2l-1 1h-2l-2 1h-1h-4l-4 1h-4h-4h-4l-5 1h-4h-4h-5h-10h-10
zM243 -52h540h5h4h3l3 1h2h3h3h5l1 4l1 2l1 3l1 3l1 3l1 2l1 3v2l1 3l1 3v2l1 3v3l1 2v3v3v3l1 3v3v3l1 7v7l1 7v8l1 9v5v5l-93 264l-64 82v4v4l-1 4v4v4l-1 4v4v4v7v7v7v7l3 -1h3l3 -1h3l3 -1l2 -1h3l3 -1l3 -1l3 -1l3 -1h1l2 -1h1l1 -1l2 -1h1l1 -1l2 -1h1l1 -1l1 -1h2
l1 -1l1 -1l1 -1l1 -1l1 -1h1l1 -2h1l1 -1l1 -1l1 -2h1l1 -1l1 -1v-2l1 -1l1 -1v-1l1 -2l1 -1v-1v-2l1 -1v-1v-2l1 -1v-1v-3v-1v-1l13 -3l11 -1l10 -1l8 -1h9l9 -1l22 -2h7h6h7h5h5h5h5h5h5h4l10 -1h10l12 -1l10 1l8 1h4h4l4 1h4h3h4h5l4 1h10h12l-2 11v9l-1 8l-1 4v4l-1 4
l-1 3v4l-1 3v3l-1 4v3l-1 3l-1 3l-1 3v4l-1 3l-1 3l-1 3l-1 4l-1 3l-1 4l-2 3l-1 4l-2 3l-1 4l-2 4l-3 9l-3 4l-3 4l-3 3l-3 3l-2 3l-3 3l-2 3l-3 3l-2 2l-3 3l-2 2l-3 2l-2 3l-2 2l-3 1l-2 2l-2 1l-3 1l-2 2l-3 1l-2 1l-3 1l-2 1l-3 1l-3 1l-3 1l-3 2l-3 1l-3 1l-3 1l-7 2
l-9 3l-7 2l-7 3l-7 2l-6 2l-6 1l-6 1l-6 2l-5 1l-6 1l-5 2l-6 1l-7 1l-6 1l-7 1l-8 2l-12 2l-10 2l-11 1l-10 1l-11 2l-11 1l-10 1l-11 1l-11 1l-11 1l-10 1l-11 1l-11 1l-11 1l-11 1h-11l-11 1h-11l-11 1h-11h-11h-11h-11h-5h-6h-5h-5h-6h-5h-5h-6h-5h-6l-5 -1h-6h-5l-5 -1
h-5h-6l-5 -1h-5l-6 -1h-5l-14 -2l-6 -1h-6l-6 -1h-5l-5 -4h-6l-6 -1h-5l-6 -1l-5 -1l-5 -1h-6l-5 -1h-5l-10 -3l-10 -1l-10 -2l-10 -1l-9 -2l-19 -4l-18 -3l-5 -1l-5 -1l-5 -1l-5 -1l-5 -1l-5 -1l-5 -2l-5 -1l-5 -1l-4 -2h-3l-2 -1l-2 -2l-3 -1l-2 -1h-2l-3 -2l-2 -1h-3
l-2 -1l-2 -1l-2 -1l-3 -2l-2 -1l-2 -1l-2 -1l-3 -2l-2 -1l-2 -1l-2 -1l-3 -1l-2 -2l-2 -1l-2 -2l-2 -1l-2 -2l-2 -1l-2 -3l-2 -1l-2 -1l-2 -3l-2 -2l-2 -2l-2 -2l-2 -2l-2 -2l-2 -3l-2 -2l-2 -3l-2 -2l-1 -2l-2 -3l-2 -3l-2 -2l-4 -9l-2 -4l-1 -4l-2 -3l-2 -4l-1 -3l-1 -4
l-1 -3l-1 -3l-1 -4l-2 -3v-3l-1 -3l-1 -4l-1 -3v-3l-1 -3l-1 -3v-4v-3l-1 -3v-3l-1 -4v-3v-3l-1 -8l-1 -7v-8l-1 -9h5h5h6h4h5h5h5l4 -1h4h5l4 -1h4l8 -1l8 -1h4l5 1h4h5l11 1h11l6 1h6h5h6h2h3h3h2h3h3h2h3h5h5l5 1h5l10 2l11 1l10 1h5l5 1h6l5 1h6l5 1v1l1 2v2v2l1 1v2v1
v2l1 1v1l1 2v1l1 1v6l1 1v1l1 1l1 1v1l2 1v1l1 1l1 1l1 1h1l1 1l1 1l1 1l1 1h1l1 1l1 1h1l1 1l1 1h2l1 1h1l1 1h2l1 1l1 1l3 1h3l3 1l3 1l2 1l3 1h4l2 1h4l3 1h3v-59l-64 -79l-94 -265l1 -9v-8v-15l1 -6v-6v-6l1 -3v-3v-2v-3v-3l1 -2v-3v-2l1 -3v-3v-2l1 -3l1 -3v-3l1 -2
l1 -4l1 -2v-4l8 -4h2h2h1h2h1h1l3 -1h3h1h2l2 -1h1h3h2v2zM411 410l-4 7l-2 4l-2 3l-1 4l-2 3l-2 4l-1 4l-1 3l-2 3l-1 4l-1 3l-2 3l-1 4l-1 3l-2 4h4l4 1l5 1l4 1l4 1l4 1l4 1l4 1l4 1h4l3 1l4 1h4l4 1l4 1h4l4 1h4l4 1h4h4l4 1h3l4 1h4h4h4h4l4 1h3h4h4h4h4h4h4l3 -1h4h4
h4h4l4 -1h3l4 -1h4h4l4 -1h4l4 -1h4l4 -1l3 -1h4l4 -1l4 -1l4 -1l4 -1l4 -1h4l4 -1l4 -1l3 -1l4 -1l4 -1l-3 -7l-3 -7l-3 -7l-2 -7l-2 -4l-1 -3l-1 -4l-2 -4l-1 -3l-1 -4l-2 -3l-1 -3h-6l-7 1h-7l-6 1h-7l-6 1h-7h-6h-7l-6 1l-7 1h-7h-6h-6h-6h-7h-6h-6h-7h-6h-6l-6 -1h-7
h-6h-6l-6 -1h-7h-6l-6 -1l-6 -1h-7zM514 363l3 1h3h3l3 -1h2h3h3l2 -1h3h3l2 -1h3l3 -1l2 -1l3 -1l2 -1h3l2 -2l3 -1h2l3 -2l2 -1l2 -1l2 -1l3 -2l2 -1l2 -1l2 -2l2 -1l2 -2l3 -2l1 -1l3 -3l1 -2l2 -1l2 -2l2 -2l2 -3l2 -2l2 -2l1 -3l2 -2l2 -3l1 -2l2 -2l1 -3l2 -2l1 -3
l2 -2l1 -3l1 -3l2 -2l1 -3l1 -3l1 -2l1 -3l1 -3l2 -3l1 -2l1 -3v-3l2 -3v-3l1 -3l1 -2v-3l1 -3l1 -3l1 -3v-3l1 -3v-3v-3l1 -3v-3v-3v-3l1 -3v-3v-3v-3v-3v-3l-1 -2v-4v-3v-2v-3l-1 -3l-1 1v-3l-1 -3l-1 -3v-3l-1 -3l-1 -3v-3l-1 -2l-1 -3l-1 -3l-1 -3l-1 -2l-2 -3l-1 -3
l-1 -2l-1 -3l-2 -3l-1 -2l-1 -1l-2 -3l-1 -2l-2 -3l-2 -2l-1 -2l-2 -3l-2 -2l-2 -3l-2 -2l-2 -2l-2 -2l-2 -2l-3 -2l-2 -3l-2 -2l-3 -1l-2 -2l-3 -2l-2 -1l-11 -7l-3 -2l-3 -1l-4 -1l-3 -2l-4 -1l-3 -1l-3 -1l-4 -1l-3 -1h-4l-3 -1l-4 -1h-3l-4 -1h-3l-4 -1h-3h-3h-4h-3h-3
h-2h-2h-1h-2l-1 1h-2h-2l-1 1h-2h-1h-2l-2 1h-1h-2l-1 1h-2h-1l-2 1l-1 1h-2l-1 1h-1l-2 1h-2l-1 1h-2l-2 1l-1 1l-2 1h-2l-1 1l-2 1l-2 1l-1 1l-2 1h-2l-1 2h-2l-2 1l-1 1l-2 1l-1 2l-2 1l-1 1l-2 1l-1 1l-2 1l-1 1l-2 1l-1 2l-2 1l-1 1l-2 1l-1 1l-1 2l-2 1l-1 1l-1 2
l-2 1l-1 1l-1 2l-1 1l-2 1l-1 2l-1 1l-1 2l-1 1l-1 1l-1 2l-1 1l-1 2l-1 1l-1 2l-1 1l-1 2l-1 1l-1 1v2l-1 1l-1 2v1l-1 2l-1 2v1l-1 2v1l-1 2l-1 3v1l-1 2v2l-1 2v2l-1 2v2v2l-1 3l-1 2v1v2l-1 3v2v2v2l-1 2v2v3v2v2v2l-1 2v2v3v2v2v1v2v3l1 2v2v2v2v2v3l1 2v1v2l1 3v2v2
l1 1v3l1 2v1l1 2v2l1 2l1 2v2l1 2l1 1l1 2v2l1 2l1 1l1 2l1 2l1 1l1 2l1 1l6 14l1 2l1 2l1 3l1 2l1 2l1 2l2 2l1 2l1 2l2 2l1 2l1 1l2 2l1 2l2 1l1 2l2 1l1 2l2 1l2 1l2 2l1 1l2 1l2 1l2 2l2 1l1 1l2 1l2 1l2 1l2 1l2 1l2 1l2 1h2l2 1l2 1l2 1l2 1h2l2 1h2l2 1l2 1h2l2 1h2
l2 1h2h2l2 1h2l2 1h2h2h2h2h1h3l1 1h2h2h2z" />
    <glyph glyph-name="uniE650" unicode="&#xe650;" horiz-adv-x="1161" 
d="M1008 615q-63 69 -153 69h-516q-90 0 -153 -69q-62 -68 -62 -163v-12q0 -25 16 -46q22 -30 61 -30h167q27 0 45.5 22t18.5 54v27q3 2 10 2h310q7 0 10 -2v-27q0 -32 18.5 -54t45.5 -22h167q39 0 61 30q15 21 15 46v12q1 95 -61 163zM997 441q-1 -3 -2 -4t-2 -1h-159v4v32
q0 26 -20 46q-24 24 -62 24h-310q-38 0 -62 -24q-20 -20 -20 -46v-32q0 -2 -1 -4h-158q-1 0 -2 1t-2 4v11q0 66 41.5 113t100.5 47h516q59 0 100.5 -47t41.5 -113v-11zM597 273q-49 0 -83.5 -35t-34.5 -84t34.5 -83.5t83.5 -34.5t83.5 34.5t34.5 83.5t-34.5 84t-83.5 35z
M597 96q-24 0 -41 17t-17 41t17 41t41 17t41 -17t17 -41t-17 -41t-41 -17zM883 229q-32 22 -47.5 34.5t-36.5 33t-30 42.5t-9 48v37h-93h-37v-4q0 -14 -9.5 -23.5t-23.5 -9.5t-23.5 9.5t-9.5 23.5v4h-37h-93v-37q0 -26 -9 -48t-30 -42.5t-36.5 -33t-47.5 -34.5
q-29 -20 -44 -31.5t-35.5 -31.5t-29.5 -41t-9 -46v-153h808v153q0 25 -9 46t-29.5 41t-35.5 31.5t-44 31.5zM928 -1h-662v80q0 15 13.5 31.5t28 27.5t44.5 32q72 49 101 82q41 46 51 99h36q22 -27 57 -27t57 27h36q10 -53 51 -99q29 -33 101 -82q30 -21 44.5 -32t28 -27.5
t13.5 -31.5v-80z" />
    <glyph glyph-name="uniE651" unicode="&#xe651;" 
d="M342 308q-3 0 -5 2l-178 179q-6 5 -0.5 10t10.5 0l179 -179q5 -5 0 -10q-3 -2 -6 -2zM902 -10h-780q-24 0 -40.5 17t-16.5 40v506q0 23 16.5 40t40.5 17h776q32 0 46 -30q13 -28 -9 -55l-1 -1l-221 -202q-6 -5 -11 0.5t1 10.5l221 201q16 20 7 40q-10 21 -33 21h-776
q-18 0 -30.5 -12.5t-12.5 -29.5v-506q0 -17 12.5 -29.5t30.5 -12.5h780q18 0 30.5 12.5t12.5 29.5v327q0 7 7 7t7 -7v-327q0 -23 -16.5 -40t-40.5 -17zM582 343q-8 -84 -8 -87q0 -31 18 -31q16 0 27 18t11 47q0 42 -26.5 68t-73.5 27q-46 0 -76 -32t-30 -80q0 -47 28 -76
t77 -29q37 0 65 13v-20q-27 -12 -67 -12q-56 0 -91 34t-35 89q0 56 36.5 93.5t93.5 37.5q53 0 87.5 -31t34.5 -81q0 -37 -18.5 -60.5t-45.5 -23.5q-34 0 -34 36h-1q-11 -36 -44 -36q-21 0 -34 15.5t-13 41.5q0 35 18 58t47 23q11 0 19.5 -5.5t10.5 -13.5h1l1 17h22zM486 264
q0 -17 7.5 -27.5t21.5 -10.5q18 0 29 18.5t11 49.5q0 32 -27 32q-19 0 -30.5 -18t-11.5 -44z" />
    <glyph glyph-name="uniE652" unicode="&#xe652;" 
d="M155 -83q-29 0 -49 20q-16 16 -16 73q0 135 73 217q61 69 74 89q24 45 24 86q0 53 37 57v82q-82 -4 -82 -49v-49q0 -49 -20 -70q-12 -12 -70 -12q-69 0 -69 49q0 127 69.5 196t167.5 77h436q98 -8 167.5 -77t69.5 -196q0 -49 -69 -49q-58 0 -70 12q-20 21 -20 70v49
q0 45 -82 49v-82q37 -4 37 -57q0 -41 24 -86q12 -20 74 -89q73 -82 73 -217q0 -57 -16 -73q-20 -20 -49 -20h-714zM653 39q57 53 57 138.5t-57 138.5q-49 53 -135 53t-135 -53q-57 -53 -57 -138.5t57 -138.5q49 -53 135 -53t135 53zM600 447q32 0 32 28v66h-240v-66
q0 -28 28 -28h180z" />
    <glyph glyph-name="uniE653" unicode="&#xe653;" 
d="M688 -6q-68 0 -140 24q-133 44 -245 156q-111 111 -156 245t-6 252q8 23 20 46l2 2q1 1 1.5 2.5t1.5 2.5q11 17 23 30q0 1 1 1q8 9 20 14l1 1h1h1q11 4 22 4h2q13 -1 24 -6q2 -1 4 -3l18 -15q1 -1 2 -3l117 -150l1 -2q8 -10 10 -20q1 0 1 -1q2 -11 1 -24q-2 -13 -8 -22
q0 -1 -1 -2v-1q-6 -9 -16 -15v-1q-1 0 -2 -1l-2 -2l-56 -40q-3 -3 -4 -6q-14 -31 9 -64q38 -55 87 -104q50 -49 104 -87q20 -13 40 -13q12 0 23 4q3 2 6 5l43 59q0 1 1 2l1 1q7 9 16 14l1 1q8 5 20 7h2l1 1h1h7q8 0 16 -2h1h2q10 -4 19 -11l151 -117q2 -1 3 -3q1 -1 2 -1
q9 -8 14 -18h1q6 -13 6 -26q1 -15 -4 -26l-1 -1v-2q-5 -10 -14 -19h-1q-13 -13 -32 -25q-1 0 -2 -1h-1v-1q-22 -12 -48 -21q-54 -18 -112 -18zM197 696q-11 -19 -17 -38q-35 -105 6 -226q41 -125 146 -229q105 -105 229 -147q65 -21 127 -21q52 0 99 16q22 7 40 18q1 0 3 1
q15 10 25 19v0l1 1q3 3 4 5t1 3q1 3 1 8t-2 10q-1 2 -5 4v1l-4 4l-150 116q-3 2 -6 3q-4 1 -7 1h-2h-2q-4 -1 -6 -2q-3 -2 -6 -5q0 -1 -1 -2l-43 -59q-9 -13 -23 -18q-18 -8 -39 -8q-33 0 -64 21q-57 39 -109 91t-92 110q-36 51 -13 103q6 14 18 23l55 39q3 3 7 6q2 1 3 3
q0 1 1 2q1 2 2 6v1q1 5 0 8t-4 7l-1 2l-115 148l-13 11q-2 1 -5 1h-1q-4 0 -9 -2q-4 -1 -6 -4q-1 0 -1 -1q-10 -10 -18 -23q-2 -4 -4 -7z" />
    <glyph glyph-name="uniE654" unicode="&#xe654;" horiz-adv-x="1053" 
d="M698 637zM526 896q-104 0 -199 -40.5t-163.5 -109t-109 -163.5t-40.5 -199t40.5 -199t109 -163.5t163.5 -109t199 -40.5t199 40.5t163.5 109t109 163.5t40.5 199t-40.5 199t-109 163.5t-163.5 109t-199 40.5zM526 -108q-100 0 -191 39t-157 105t-105 157t-39 191t39 191
t105 157t157 105t191 39t191 -39t157 -105t105 -157t39 -191t-39 -191t-105 -157t-157 -105t-191 -39zM750 615q-28 22 -46 29q-15 7 -29 1l-8 -4q-18 -8 -38 -36q-14 -18 -24 -35l-21 -40l-1 -5q-6 -14 5 -25l1 -1q1 0 3 -2l2 -2q6 -4 10.5 -6.5t8.5 -5.5q6 -3 18.5 -8
t19.5 -9q12 -5 16 -19t-1 -22q-20 -44 -78 -99q-40 -38 -99 -72q-17 -7 -31 -1t-21 19q-3 6 -8.5 16t-7.5 14l-14 22q-4 7 -13 10q-11 4 -21 -1l-12 -6l-28 -18q-21 -13 -46 -34l-24 -22l-6 -7l-2 -3q-9 -13 1 -36q10 -21 33 -42q52 -48 98 -42q43 6 120.5 48.5t137.5 100
t105 130.5t51 115q3 24 -11.5 50t-39.5 48z" />
    <glyph glyph-name="uniE655" unicode="&#xe655;" 
d="M512 -111q-101 0 -192.5 39.5t-158 105.5t-105.5 158t-39 192.5t39.5 192.5t105.5 158.5t157.5 105.5t192.5 39t192.5 -39t158 -105.5t105.5 -158t39 -192t-39.5 -192.5t-105.5 -158.5t-157.5 -106t-192.5 -39.5zM512 860q-96 0 -184 -38t-151.5 -101.5t-101 -151
t-37.5 -184t37.5 -184t101 -151t151.5 -101.5t184 -38t184 38t151.5 101.5t101 151t37.5 184t-37.5 184t-101 151t-151.5 101.5t-184 38zM555 290q32 19 41 24q15 8 23 3t84 -56q12 -10 1 -27q-8 -14 -29 -35.5t-32 -21.5q-79 0 -204 124q-119 120 -125 205q0 9 21 29.5
t36 31.5q19 12 27 -1q51 -76 56 -84.5t-2 -22.5l-24 -42q13 -23 59 -69q20 -20 37 -34.5t24 -18.5z" />
    <glyph glyph-name="uniE656" unicode="&#xe656;" 
d="M611 584q-21 11 -50 18t-49 7q-51 0 -99 -25v-99h198v99zM561 510h-99v25q1 1 4.5 4t4.5 4t4.5 3.5t5 3.5t5 3t6 3t6 2t6.5 1h8q11 0 21.5 -4.5t14.5 -8t13 -11.5v-25zM918 646q-58 26 -183 44t-223 18q-93 0 -219 -19t-187 -43q-38 -15 -41 -111v-25q0 -25 26 -49.5
t49 -24.5l154 45q1 0 2 1l2 1q-75 -44 -141.5 -94.5t-66.5 -76.5v-198q0 -18 16 -33.5t34 -15.5h744q18 0 33.5 15t15.5 34v198q0 26 -67 76.5t-143 95.5l3 -2q2 -1 4 -1l154 -45q24 0 49 24t25 50v25q0 67 -25 99q-7 8 -15 12zM909 535q0 -20 -7 -35t-18 -15l-124 40
q-25 6 -25 34v25h-99v-74q79 -43 163.5 -108.5t84.5 -89.5v-148q0 -29 -10.5 -39.5t-39.5 -10.5h-645q-26 0 -37.5 11.5t-11.5 38.5v148q0 25 83 89.5t165 108.5v74h-99v-25q2 -12 -5 -21.5t-20 -12.5l-124 -40q-3 0 -5.5 0.5t-4.5 1.5l-3 1q-1 1 -2.5 3t-2.5 2.5t-2 3.5
t-1.5 4t-2 4.5t-1.5 4.5v25q0 3 -1 14t-0.5 18t2.5 16t8 15.5t16 10.5q54 21 162 35t210 14t210 -14t162 -35q10 -4 16 -10t7.5 -15t2 -15.5t0 -18t-0.5 -15.5zM703 499q2 -3 8 -8q-10 5 -29 24t-21 20v24h24v-24q0 -10 18 -36zM313 491q8 7 16.5 21t8.5 23v24h25v-9v-7v-4
v-4q-2 -1 -21 -19.5t-29 -24.5zM338 535zM512 411q-51 0 -87.5 -36t-36.5 -87.5t36.5 -87.5t87.5 -36t87.5 36t36.5 87.5t-36.5 87.5t-87.5 36zM512 213q-31 0 -53 22t-22 52.5t22 52.5t53 22t52.5 -22t21.5 -52.5t-21.5 -52.5t-52.5 -22z" />
    <glyph glyph-name="uniE657" unicode="&#xe657;" 
d="M960 487q-21 -29 -44.5 -39.5t-43 -5.5t-38.5 19t-30 26.5t-18 24.5q-8 13 -32 35.5t-59.5 48t-84.5 43.5t-97 18q-56 0 -107 -18t-84.5 -46t-53 -48.5t-29.5 -36.5q-7 -12 -18 -25t-30 -27.5t-38.5 -19.5t-43.5 6t-45 41q-5 6 -9 19.5t-5.5 34.5t1.5 44.5t16 49.5
t33.5 51t56.5 47.5t83.5 39.5t118 27.5t154.5 10.5q85 0 154.5 -10t116.5 -27t83.5 -39t56.5 -46.5t33 -50.5t16 -49.5t1.5 -43.5t-5.5 -34t-9 -20zM513 757q-98 0 -173.5 -12.5t-119 -32.5t-71.5 -45.5t-37.5 -50t-10.5 -48t3.5 -39t9.5 -21.5q12 -15 23.5 -18t24.5 7.5
t21 20t23 29.5q5 7 8 10q13 18 34.5 38.5t59.5 48.5t92.5 46t112.5 18q49 0 102 -18.5t93 -45t66 -48.5t37 -35l3 -3q15 -19 24 -29t24 -22.5t27 -11t21 16.5q5 7 9.5 22t3 38t-11 47.5t-37.5 49.5t-71 44t-118 31.5t-172 12.5zM513 607q62 0 122 -35.5t104 -92t78.5 -123.5
t52 -132t17.5 -115q0 -107 -59.5 -128.5t-314 -21.5t-314.5 21.5t-60 128.5q0 49 18 113.5t52 131.5t78.5 124t104 93t121.5 36zM513 9q221 0 272.5 18t51.5 108q0 34 -15 86.5t-45 110.5t-68 108.5t-90 83.5t-105.5 33t-105.5 -33t-90.5 -84t-68 -109t-45 -110t-15.5 -86
q0 -90 51.5 -108t272.5 -18zM513 458q52 0 88.5 -36.5t36.5 -88.5t-36.5 -88.5t-88 -36.5t-88 36.5t-36.5 88.5t36.5 88.5t87.5 36.5zM513 258q31 0 53 22t22 53t-22 53t-53 22t-53 -22t-22 -53t22 -53t53 -22zM513 258z" />
    <glyph glyph-name="uniE658" unicode="&#xe658;" 
d="M510 -30h-370q-23 0 -39.5 14t-21.5 36q-1 6 -1 15v202q0 144 -1 222q0 6 5 8q23 14 71.5 43t73.5 44q5 3 5 9v177q0 28 18 46t47 18h427q28 0 46 -18t18 -46q1 -125 0 -178q0 -5 5 -8q26 -15 74.5 -44t71.5 -43q4 -2 4 -8v-425q0 -28 -18 -46t-46 -18h-369zM495 164
l-1 1l-1 1l-1 1l-1 1h-1l-1 1l-1 1l-1 1l-1 1l-1 1h-1l-1 1l-1 1l-1 1l-1 1l-1 1h-1l-1 1l-1 1l-1 1l-1 1l-1 1h-1l-1 1l-1 1l-1 1l-1 1l-1 1h-1l-1 1l-1 1l-1 1l-1 1l-1 1h-1l-1 1l-1 1l-1 1l-1 1l-1 1h-1l-1 1l-1 1l-1 1l-1 1l-1 1h-1l-1 1l-1 1l-1 1l-1 1l-1 1h-1l-1 1
l-1 1l-1 1l-1 1l-1 1l-1 1h-1l-1 1l-1 1l-1 1l-1 1l-1 1h-1l-1 1l-1 1l-1 1l-1 1l-1 1h-1l-1 1l-1 1l-1 1l-1 1l-1 1h-1l-1 1l-1 1l-1 1l-1 1l-1 1h-1l-1 1l-1 1l-1 1l-1 1l-1 1h-1l-1 1l-1 1l-1 1l-1 1l-1 1h-1l-1 1l-1 1l-1 1l-1 1l-1 1h-1l-1 1l-1 1l-1 1l-1 1l-1 1h-1
l-1 1l-1 1l-1 1l-1 1l-1 1h-1l-1 1l-1 1l-1 1l-1 1l-1 1h-1l-1 1l-1 1l-1 1l-1 1l-1 1h-1l-1 1l-1 1l-1 1l-1 1l-1 1h-1l-1 1l-1 1l-1 1l-1 1l-1 1l-1 1h-1l-1 1l-1 1l-1 1l-1 1l-1 1h-1l-1 1l-1 1l-1 1l-1 1l-1 1h-1l-1 1l-1 1l-1 1l-1 1l-1 1h-1l-1 1l-1 1l-1 1l-1 1l-1 1
h-1l-1 1l-1 1l-1 1l-1 1l-1 1h-1l-1 1l-1 1l-1 1l-1 1l-1 1h-1l-1 1l-1 1l-1 1l-1 1l-1 1h-1l-1 1l-1 1l-1 1l-1 1l-1 1h-1l-1 1l-1 1l-1 1l-1 1l-1 1h-1l-1 1l-1 1l-1 1l-1 1l-1 1h-1l-1 1l-1 1l-1 1l-1 1l-1 1h-1l-1 1l-1 1l-1 1l-1 1l-1 1h-1l-1 1l-1 1l-1 1l-1 1l-1 1
h-1l-1 1l-1 1l-1 1l-1 1l-1 1h-1l-1 1l-1 1l-1 1l-1 1l-1 1l-1 1h-1l-1 1l-1 1l-1 1l-1 1l-1 1h-1l-1 1l-1 1l-1 1l-1 1l-1 1h-1l-1 1l-1 1l-1 1l-1 1l-1 1h-1l-1 1l-1 1l-1 1l-1 1l-1 1h-1l-1 1l-1 1l-1 1l-1 1l-1 1h-1l-1 1l-1 1l-1 1l-1 1l-1 1h-1l-1 1l-1 1l-1 1l-1 1
l-1 1h-1l-1 1l-1 1l-1 1l-1 1l-1 1h-1l-1 1l-1 1l-1 1l-1 1l-1 1l-1 1h-1l-1 1l-1 1l-1 1l-1 1l-1 1h-1l-1 1l-1 1l-1 1l-1 1l-1 1h-1l-1 1l-1 1l-1 1l-1 1l-1 1h-1l-1 1l-1 1l-1 1l-1 1l-1 1h-1l-1 1l-1 1l-1 1l-1 1l-1 1h-1l-1 1l-1 1l-1 1l-1 1l-1 1h-1l-1 1l-1 1l-1 1
l-1 1l-1 1h-1l-1 1l-1 1l-1 1l-1 1l-1 1h-1l-1 1l-1 1l-1 1l-1 1l-1 1h-1l-1 1l-1 1l-1 1l-1 1l-1 1h-1l-1 1l-1 1l-1 1l-1 1l-1 1l-1 1h-1l-1 1l-1 1l-1 1l-1 1l-1 1h-1l-1 1l-1 1l-1 1l-1 1l-1 1h-1l-1 1l-1 1l-1 1l-1 1l-1 1h-1l-2 2q-24 -14 -27 -16q-4 -2 -4 -8v-225
v-191q0 -23 14 -36.5t36 -13.5h736q23 0 37 13.5t14 36.5v239v177q0 6 -5 9q-18 10 -39 23q-5 3 -9 0q-101 -85 -346 -290q-4 -3 -35 -29zM495 183l3 2q189 158 273 229q3 2 3 6v321q0 21 -14 35t-34 14h-430q-22 0 -35.5 -14t-13.5 -35q-1 -313 -1 -345q0 -6 5 -9
q43 -36 183 -153q8 -7 61 -51zM232 540q-23 -13 -96 -57q31 -26 96 -80v137zM867 494q-2 2 -78 46v-112q14 12 40 33t38 33zM325 588v31h370v-31h-370zM325 496v30h370v-30h-370zM572 681v30h123v-30h-123z" />
    <glyph glyph-name="uniE659" unicode="&#xe659;" 
d="M516 651q10 9 19 11.5t32 2.5q25 0 39 -4q3 -2 3 -18q2 -26 -7 -59t-24 -55q-6 -6 -11 -8q-4 -2 -15 -3t-18.5 -4t-22.5 -21t-33 -51q-45 -81 -45 -123q0 -16 9 -27t9 -18q0 -17 -10 -38q-15 -29 -35.5 -51.5t-38.5 -22.5q-4 -2 -13.5 1.5t-12.5 3.5q-5 -2 -7 -7
t-2.5 -12.5t-1.5 -9.5q-1 -33 28 -57.5t70 -34.5t83 -8q66 3 127 28t110.5 68.5t79.5 110t31 145.5q0 45 -12.5 90.5t-40.5 89.5t-67.5 78t-98.5 56.5t-129 25.5q-43 3 -90 -10t-92 -41.5t-81.5 -68t-59 -97t-23.5 -123.5q-3 -128 94 -241q-18 -13 -38 3.5t-32 39.5
q-66 101 -61 198q2 83 35.5 155.5t87.5 121t122 76t137 24.5q75 -2 140 -26.5t109.5 -63.5t76 -88t46 -99.5t14.5 -99.5q0 -75 -23.5 -140t-62.5 -110.5t-90 -77.5t-107 -47t-113 -15q-51 0 -96 14.5t-75 44.5t-30 71q0 15 3.5 24.5t17.5 33.5l-4 9q-5 3 -6.5 7.5t-2 9.5
t-0.5 7q-1 54 30 141.5t81 163.5q23 38 51 74.5t47 50.5zM388 149q35 -21 51 -21q19 3 45 39t26 54q0 10 -5 16.5t-17.5 16t-17.5 14.5q-13 -48 -32 -73.5t-50 -45.5zM593 515q19 -8 43 -8q17 3 23 12q2 3 9.5 20.5t11 29.5t4.5 23q0 23 -1 25q-5 7 -18.5 17.5t-28.5 16.5
q-1 -42 -10.5 -71t-32.5 -65z" />
    <glyph glyph-name="uniE65A" unicode="&#xe65a;" 
d="M634 -99q-7 0 -15 1q-176 26 -364 231q-102 113 -154 216.5t-41 174.5q4 26 21.5 52t37 43t44 33t35 21t17.5 8q9 4 18 1t14 -11l114 -192q6 -10 2 -21t-14 -16q-14 -7 -18 -24q-11 -51 68 -144q68 -81 129 -83q35 -2 60 22q7 7 16.5 8t17.5 -5l179 -135q17 -13 7 -32
q-3 -8 -9.5 -18.5t-24.5 -36t-36.5 -44.5t-47 -34t-56.5 -15zM215 624q-37 -20 -68.5 -48.5t-35.5 -59.5q-9 -53 35 -144t147 -204q175 -192 333 -215q34 -6 67.5 26t58.5 74l-145 110q-38 -25 -79 -23q-85 2 -168 101q-97 114 -78 190q6 24 23 42zM949 316q-10 0 -17.5 6.5
t-8.5 15.5q-3 25 -7 47q-3 10 3 19t16.5 11t19.5 -4t11 -16q5 -26 8 -51q1 -10 -5.5 -18.5t-16.5 -9.5h-3zM909 469q-17 0 -24 16q-5 14 -12 28q-30 66 -77 123q-106 131 -265 186q-10 3 -14.5 13t-1 20t13 14.5t19.5 0.5q173 -59 288 -202q50 -62 84 -134q7 -15 13 -30
q4 -10 0 -20t-14 -14q-5 -1 -10 -1zM793 319q-9 0 -16.5 6t-8.5 16q-20 110 -91 198t-175 130q-10 4 -14 14t0 19.5t13.5 14t19.5 0.5q116 -47 196 -145.5t101 -222.5q2 -10 -4 -18.5t-17 -10.5q-2 -1 -4 -1zM633 328q-19 0 -24 18q-16 53 -51 97q-36 44 -86 71q-9 5 -12 15
t2 19.5t15 12.5t19 -2q59 -32 101 -84q42 -51 61 -114q3 -10 -2 -19.5t-15 -12.5q-4 -1 -8 -1z" />
    <glyph glyph-name="uniE65B" unicode="&#xe65b;" 
d="M685 749v-29q-54 0 -91.5 -38.5t-37.5 -92.5h-29q0 66 46 112.5t112 47.5zM474 588l-29 -1q0 101 70 172t170 72v-29q-88 -1 -149.5 -63.5t-61.5 -150.5zM117 94l113 -112q47 -46 112.5 -45.5t111.5 47.5l405 411q46 47 45.5 112.5t-46.5 111.5l-113 112l-194 -197
l102 -101l-239 -244l-103 102zM158 94l153 156l103 -102l280 285l-103 101l154 156l92 -91q39 -38 39 -92t-37 -92l-405 -411q-38 -38 -92 -38.5t-92 37.5z" />
    <glyph glyph-name="uniE65C" unicode="&#xe65c;" 
d="M342 392q-3 0 -5 2l-178 179q-6 5 -0.5 10t10.5 0l179 -179q5 -5 0 -10q-3 -2 -6 -2zM902 74h-780q-24 0 -40.5 17t-16.5 40v506q0 23 16.5 40t40.5 17h776q32 0 46 -30q13 -28 -9 -55l-1 -1l-221 -202q-6 -5 -11 0.5t1 10.5l221 201q16 20 7 40q-10 21 -33 21h-776
q-18 0 -30.5 -12.5t-12.5 -29.5v-506q0 -17 12.5 -29.5t30.5 -12.5h780q18 0 30.5 12.5t12.5 29.5v327q0 7 7 7t7 -7v-327q0 -23 -16.5 -40t-40.5 -17zM582 427q-8 -84 -8 -87q0 -31 18 -31q16 0 27 18t11 47q0 42 -26.5 68.5t-73.5 26.5q-46 0 -76 -32t-30 -80
q0 -47 28 -76t77 -29q37 0 65 13v-20q-27 -12 -67 -12q-56 0 -91 34t-35 89q0 56 36.5 93.5t93.5 37.5q53 0 87.5 -31t34.5 -81q0 -37 -18.5 -60.5t-45.5 -23.5q-34 0 -34 36h-1q-11 -36 -44 -36q-21 0 -34 15.5t-13 41.5q0 35 18 58t47 23q11 0 19.5 -5.5t10.5 -13.5h1
l1 17h22zM486 348q0 -17 7.5 -27.5t21.5 -10.5q18 0 29 18.5t11 49.5q0 32 -27 32q-19 0 -30.5 -18t-11.5 -44z" />
    <glyph glyph-name="uniE65D" unicode="&#xe65d;" 
d="M706 606l-318 -318l317 -318q9 -8 9 -19.5t-8.5 -19.5t-20 -8t-19.5 8l-14 14l-343 342l358 358q8 8 19.5 8t20 -8t8.5 -19.5t-9 -19.5z" />
    <glyph glyph-name="uniE65E" unicode="&#xe65e;" 
d="M718 -89q10 9 10 23t-10 23l-342 340l340 343q10 10 10 23.5t-10 23.5t-23.5 10t-23.5 -10l-362 -365q0 -1 -1 -2v-1q-10 -9 -10 -23t10 -23l365 -363q10 -9 23.5 -9t23.5 10zM718 -89z" />
    <glyph glyph-name="uniE65F" unicode="&#xe65f;" 
d="M635 315q5 -5 5 -13t-5 -13q-22 -21 -160.5 -156t-160.5 -155q-8 -8 -18.5 -4.5t-13 12.5t5.5 18q19 18 152.5 149t153.5 149q-20 18 -153 147t-153 147q-8 8 -5 18t12.5 12.5t19.5 -4.5q22 -19 160 -153t160 -154zM635 315z" />
    <glyph glyph-name="uniE660" unicode="&#xe660;" 
d="M932 382l-511 511l-15 -16l495 -495l-495 -494l15 -16l495 495zM932 382z" />
    <glyph glyph-name="uniE661" unicode="&#xe661;" 
d="M161 383l16 16l496 496l15 -16l-495 -496l495 -495l-15 -16l-496 496zM161 383z" />
    </font>
</defs>
</svg>
